<?xml version="1.0" standalone="no"?>
<!DOCTYPE svg PUBLIC "-//W3C//DTD SVG 1.1//EN" "http://www.w3.org/Graphics/SVG/1.1/DTD/svg11.dtd" >
<svg xmlns="http://www.w3.org/2000/svg">
<metadata></metadata>
<defs>
<font id="hello_typeregular" horiz-adv-x="1396" >
<font-face units-per-em="2048" ascent="1546" descent="-502" />
<missing-glyph horiz-adv-x="645" />
<glyph unicode="&#xfb01;" horiz-adv-x="1458" d="M-90 -332q0 35 19.5 58.5t43.5 23.5q19 0 64.5 -10t68.5 -10q158 0 158 137v1059h-141q-74 0 -74 71q0 68 74 68h143v88q0 95 32.5 166.5t90.5 113.5t131 62.5t160 20.5q203 0 203 -80q0 -35 -15.5 -54.5t-40.5 -19.5q-20 0 -68.5 6t-76.5 6q-250 0 -250 -219v-90h721 q35 0 54.5 -19.5t19.5 -54.5v-917q0 -35 -19.5 -54.5t-54.5 -19.5h-18q-35 0 -54.5 19.5t-19.5 54.5v852h-629v-1071q0 -136 -87 -207.5t-220 -71.5q-32 0 -64.5 3.5t-69 12.5t-59 29t-22.5 47zM1061 1284v68q0 34 19.5 53.5t54.5 19.5h18q35 0 54.5 -19.5t19.5 -53.5v-68 q0 -34 -19.5 -54t-54.5 -20h-18q-35 0 -54.5 20t-19.5 54z" />
<glyph unicode="&#xfb02;" horiz-adv-x="1581" d="M-90 -332q0 35 19.5 58.5t43.5 23.5q19 0 64.5 -10t68.5 -10q69 0 113.5 32t44.5 105v1059h-141q-35 0 -54.5 19.5t-19.5 53.5q0 66 74 66h143v88q0 95 32.5 166.5t90.5 113.5t131 62.5t160 20.5q203 0 203 -80q0 -35 -15.5 -54.5t-40.5 -19.5q-19 0 -68 6t-77 6 q-250 0 -250 -219v-90h287q35 0 54.5 -18t19.5 -50q0 -71 -78 -71h-283v-938q0 -198 -52.5 -289t-191.5 -115q-40 -6 -84 -6q-30 1 -60.5 5.5t-62 14t-51.5 27.5t-20 43zM1061 326v1110q0 38 23.5 59t56.5 21q36 0 60 -21t24 -59v-1211q0 -98 129 -98q24 0 65 4t65 2.5 t42 -12.5q35 -23 26 -66q-7 -38 -81 -60t-150 -22q-149 0 -204.5 79t-55.5 274z" />
<glyph horiz-adv-x="682" />
<glyph unicode="&#xd;" horiz-adv-x="669" />
<glyph unicode=" "  horiz-adv-x="645" />
<glyph unicode="&#x09;" horiz-adv-x="645" />
<glyph unicode="&#xa0;" horiz-adv-x="645" />
<glyph unicode="!" horiz-adv-x="690" d="M250 74v41q0 35 20 54t56 19h34q34 0 54 -19t20 -54v-41q0 -35 -20 -54.5t-54 -19.5h-34q-35 0 -55.5 19.5t-20.5 54.5zM256 1298q0 26 0.5 38t4.5 28.5t11.5 23t22.5 12t37 5.5h26q27 0 42.5 -6t22 -23t8 -31.5t1.5 -46.5l-10 -886q0 -34 -22 -53t-60 -19 q-42 0 -58 18.5t-16 57.5z" />
<glyph unicode="&#x22;" horiz-adv-x="1009" d="M205 1018v278q0 58 15.5 83.5t60.5 25.5q26 0 42 -11.5t22.5 -37t7.5 -42.5t1 -52v-244q0 -57 -16.5 -83.5t-61.5 -25.5q-42 0 -56.5 26.5t-14.5 82.5zM655 1018v278q0 57 16.5 83t61.5 26q18 0 31 -5.5t21 -17.5t12.5 -23t6.5 -31t2.5 -32t0.5 -34v-244q0 -56 -17 -83 t-61 -26q-43 0 -58.5 26.5t-15.5 82.5z" />
<glyph unicode="#" horiz-adv-x="1622" d="M70 432q0 26 13.5 42.5t41.5 22.5t48 7.5t56 1.5h164l68 391h-205q-94 0 -94 61q0 48 29 62t88 14h208l45 266q9 52 26 78.5t58 26.5q38 0 57 -20.5t13 -57.5l-49 -293h467l45 266q9 52 26 78.5t58 26.5q38 0 57 -20.5t13 -57.5l-50 -293h174q38 0 61.5 -3.5t42.5 -19.5 t19 -46q0 -17 -5 -29t-18 -19.5t-23 -11.5t-31.5 -6t-32 -2h-34.5h-15h-162l-70 -391h123q39 0 60.5 -1.5t53 -7t47 -20.5t15.5 -39q0 -19 -6.5 -32.5t-15.5 -20.5t-26 -10.5t-31 -4.5t-38 -1h-206l-48 -265q-5 -28 -8.5 -41.5t-12 -31t-23 -24.5t-37.5 -7q-33 0 -55 19 t-15 57l49 293h-467l-47 -265q-4 -22 -6.5 -33.5t-8.5 -27.5t-14 -23.5t-21.5 -13.5t-31.5 -6q-34 0 -56 21.5t-16 54.5l52 293h-176q-31 0 -48 1.5t-37 7t-29 19t-9 35.5zM543 506h467l69 391h-467z" />
<glyph unicode="$" horiz-adv-x="1355" d="M135 231q-3 21 2 37q3 18 19.5 37.5t33.5 20.5q16 3 31 0q13 -2 43.5 -21.5t42.5 -25.5q168 -94 375 -97q80 0 119 6q124 11 196 56.5t72 124.5q0 50 -31 86.5t-83.5 58.5t-120 39t-143 31t-150.5 30.5t-142.5 42.5t-120 61t-83.5 92.5t-31 131.5q0 84 36.5 149.5 t102 107t147 65.5t179.5 32v142q0 67 73 67q70 0 70 -67v-144q364 -32 440 -301q5 -20 5 -22q0 -26 -28 -47t-69 -21q-20 0 -38.5 25.5t-43 61.5t-62 72t-113.5 61.5t-179 25.5q-95 0 -169.5 -18.5t-124.5 -65t-50 -115.5q0 -62 50.5 -104t131 -64.5t177.5 -41t194.5 -42 t178 -58t131 -99t50.5 -154.5q0 -111 -62 -188.5t-166.5 -116t-250.5 -47.5v-141q0 -34 -19.5 -52t-54.5 -18q-69 0 -69 70v143q-99 5 -199 28t-185 67t-112 99z" />
<glyph unicode="%" horiz-adv-x="1798" d="M102 1085q0 172 92 258.5t248 86.5t246 -86.5t90 -260.5q0 -167 -91.5 -255.5t-244.5 -88.5q-154 0 -247 86.5t-93 259.5zM242 1085q0 -120 51.5 -171.5t148.5 -51.5q94 0 145.5 51.5t51.5 169.5q0 226 -197 226q-96 0 -148 -52.5t-52 -171.5zM285 37q0 23 20 49 l1059 1284q19 25 41 33t59 8q21 0 34 -11.5t13 -29.5q0 -21 -20 -51l-1059 -1282q-38 -47 -88 -47q-28 0 -43.5 12.5t-15.5 34.5zM1016 319q0 172 92 259.5t248 87.5t247 -86.5t91 -260.5q0 -167 -92.5 -256.5t-245.5 -89.5q-154 0 -247 87t-93 259zM1155 319 q0 -119 52.5 -171t148.5 -52q95 0 145.5 52t50.5 171t-51 171.5t-145 52.5q-201 0 -201 -224z" />
<glyph unicode="&#x26;" horiz-adv-x="1492" d="M88 352q0 256 332 387q-236 181 -236 351q0 153 119.5 247.5t331.5 94.5q207 0 318.5 -92.5t111.5 -239.5q0 -72 -32.5 -135.5t-90 -111.5t-113.5 -81.5t-127 -64.5l353 -283q50 76 65 242q3 32 25.5 49.5t52.5 17.5q33 0 56.5 -21t23.5 -59q0 -81 -26.5 -170t-63.5 -157 l246 -211q32 -28 32 -64q0 -28 -19.5 -47.5t-49.5 -19.5q-27 0 -56 20l-247 197q-79 -101 -214 -164.5t-307 -63.5q-141 0 -248.5 41.5t-172 128.5t-64.5 209zM260 352q0 -79 48.5 -132t117.5 -74t154 -21q222 0 385 176l-428 340q-126 -43 -201.5 -111t-75.5 -178z M358 1094q0 -53 29.5 -102t61.5 -77.5t106 -86.5q19 -15 29 -23q147 53 226 121.5t79 173.5q0 89 -66.5 137.5t-189.5 48.5q-76 0 -136 -18.5t-99.5 -63t-39.5 -110.5z" />
<glyph unicode="'" horiz-adv-x="559" d="M205 1018v278q0 58 15.5 83.5t60.5 25.5q26 0 42 -11.5t22.5 -37t7.5 -42.5t1 -52v-244q0 -57 -16.5 -83.5t-61.5 -25.5q-42 0 -56.5 26.5t-14.5 82.5z" />
<glyph unicode="(" horiz-adv-x="843" d="M162 512q0 552 448 967q19 17 37.5 21.5t52.5 4.5q21 0 34.5 -11.5t13.5 -29.5q0 -25 -25 -53q-404 -432 -404 -899q0 -469 404 -901q20 -23 20 -45q0 -21 -18 -35t-47 -14q-39 0 -68 26q-66 59 -125 126t-120 160.5t-104.5 193.5t-71 227.5t-27.5 261.5z" />
<glyph unicode=")" horiz-adv-x="843" d="M100 -434q0 22 23 45q401 429 401 901q0 470 -401 899q-23 23 -23 43q0 22 19.5 36.5t48.5 14.5q32 0 65 -26q449 -416 449 -967q0 -553 -449 -969q-29 -26 -69 -26q-27 0 -45.5 14.5t-18.5 34.5z" />
<glyph unicode="*" horiz-adv-x="1128" d="M158 1204q0 25 16.5 43.5t42.5 18.5q21 0 51 -15l246 -133q-9 121 -12 225q-1 31 17.5 49.5t47.5 18.5q28 0 44 -17t16 -48q-4 -116 -13 -226l248 133q26 13 43 13q24 0 43 -18t19 -46q0 -41 -52 -61l-247 -105l247 -108q54 -22 54 -62q0 -25 -17.5 -44t-40.5 -19 q-20 0 -49 16l-248 131q9 -117 13 -223q0 -33 -18 -50.5t-48 -17.5q-27 0 -43.5 17.5t-15.5 50.5q3 101 12 223l-248 -133q-19 -12 -43 -12q-23 0 -41 17t-18 44q0 42 49 62l246 108l-246 105q-55 21 -55 63z" />
<glyph unicode="+" d="M172 666v2q0 35 19.5 55t54.5 20h375v322q0 35 19 54.5t54 19.5h6q35 0 54.5 -19.5t19.5 -54.5v-322h375q35 0 55.5 -20t20.5 -55v-2q0 -34 -20.5 -54t-55.5 -20h-375v-324q0 -34 -19.5 -53.5t-54.5 -19.5h-6q-35 0 -54 19.5t-19 53.5v324h-375q-35 0 -54.5 20t-19.5 54z " />
<glyph unicode="," horiz-adv-x="561" d="M27 -248q0 22 8 41l158 316q22 51 77 51h52q25 0 38 -12.5t13 -32.5q0 -21 -15 -47l-182 -320q-31 -51 -88 -51q-61 0 -61 55z" />
<glyph unicode="-" horiz-adv-x="1103" d="M227 666v2q0 35 19.5 55t54.5 20h500q35 0 54 -20t19 -55v-2q0 -34 -19 -54t-54 -20h-500q-35 0 -54.5 20t-19.5 54z" />
<glyph unicode="." horiz-adv-x="561" d="M188 74v41q0 35 20 54t54 19h35q36 0 56 -19t20 -54v-41q0 -35 -20.5 -54.5t-55.5 -19.5h-35q-34 0 -54 19.5t-20 54.5z" />
<glyph unicode="/" horiz-adv-x="989" d="M88 43q0 11 12 39l652 1288q16 31 39 42t59 11q24 0 39.5 -13.5t15.5 -37.5q0 -21 -10 -41l-657 -1290q-27 -53 -84 -53q-30 0 -48 14.5t-18 40.5z" />
<glyph unicode="0" horiz-adv-x="1490" d="M135 698q0 187 45 329t128 230t194 131.5t248 43.5q138 0 247.5 -42.5t191 -129.5t125.5 -229t44 -331t-45 -330.5t-128 -227t-193.5 -127.5t-248.5 -42q-136 0 -245 41.5t-191.5 127.5t-127 227t-44.5 329zM307 700q0 -297 110.5 -434t327.5 -137q218 0 329.5 137 t111.5 436q0 298 -111.5 437t-329.5 139q-438 0 -438 -578z" />
<glyph unicode="1" horiz-adv-x="901" d="M94 1210q0 53 56 76l256 105q100 41 155 41q86 0 86 -105v-1245q0 -37 -20 -59.5t-56 -22.5h-18q-42 0 -59 21.5t-17 62.5v1169l-278 -106q-18 -6 -35 -6q-31 0 -50.5 20t-19.5 49z" />
<glyph unicode="2" horiz-adv-x="1400" d="M166 1112q21 60 67 115.5t114 102t164.5 74.5t205.5 28q246 0 386 -111.5t140 -312.5q0 -122 -60 -219t-196 -201l-571 -434h780q35 0 54.5 -19.5t19.5 -54.5v-6q0 -35 -19.5 -54.5t-54.5 -19.5h-907q-39 0 -66 22.5t-34.5 54t7 70.5t52.5 68l594 453q131 99 178 176 t47 160q0 134 -97 205t-253 71q-158 0 -257.5 -56.5t-135.5 -150.5q-19 -50 -65 -59.5t-77.5 20.5t-15.5 78z" />
<glyph unicode="3" horiz-adv-x="1392" d="M123 1096q0 18 4 28q14 48 40.5 90.5t71 83t102.5 70t141 47t180 17.5q271 0 421 -102.5t150 -285.5q0 -240 -262 -323q291 -70 291 -344q0 -192 -161 -298t-427 -106q-68 0 -159 13.5t-179.5 37.5t-149.5 63.5t-61 84.5q0 35 23.5 62.5t52.5 27.5q21 0 47 -16 q82 -56 193 -86.5t231 -30.5q185 0 299 62t114 184q0 135 -105 194.5t-316 59.5h-101q-35 0 -55.5 20.5t-20.5 55.5t19.5 55t56.5 20h94q184 0 289 70.5t105 181.5q0 114 -92.5 179t-290.5 65q-89 0 -158.5 -16.5t-112.5 -45t-68.5 -62t-37.5 -73.5q-20 -53 -78 -53 q-38 0 -64 18.5t-26 51.5z" />
<glyph unicode="4" horiz-adv-x="1429" d="M74 420q0 67 63 141q81 90 303.5 340.5t345.5 386.5q100 117 179 117h71q24 0 40 -10t23 -30t9 -39.5t2 -49.5v-772h170q36 0 55 -21t19 -57q0 -48 -31.5 -63t-93.5 -15h-119v-274q0 -74 -80 -74q-52 0 -69 29.5t-17 93.5v225h-737q-32 0 -50 1.5t-40 8t-32.5 22 t-10.5 40.5zM287 504h657v729z" />
<glyph unicode="5" horiz-adv-x="1384" d="M150 158q0 37 24.5 62.5t50.5 25.5q19 0 45 -15q153 -102 396 -102q192 0 298.5 74.5t106.5 214.5q0 141 -119 214t-325 73q-153 0 -285 -27q-6 -2 -23 -2q-29 0 -51 14l-22 15q-41 27 -41 73v553q0 18 5.5 31t17.5 21t23 12.5t31 6.5t32 2.5t34 0.5h760q76 0 76 -84 q0 -23 -9 -39t-20.5 -24t-34.5 -12t-37 -4.5t-42 -0.5h-9h-667v-405q136 22 274 22q287 0 447.5 -113.5t160.5 -322.5q0 -207 -152.5 -328t-422.5 -121q-70 0 -158 13t-170 35.5t-138 59t-56 77.5z" />
<glyph unicode="6" horiz-adv-x="1425" d="M135 696q0 192 44.5 334.5t128 229.5t196 129.5t254.5 42.5q104 0 188.5 -20.5t138.5 -55t86 -66t54 -67.5q38 -54 14 -100.5t-71 -46t-81 45.5q-40 74 -127 114t-210 40q-433 0 -439 -533q215 103 465 103q111 0 205.5 -25t168 -74t115.5 -130.5t42 -186.5 q0 -220 -157 -338.5t-413 -118.5q-136 0 -244 42t-189 127.5t-125 226t-44 327.5zM313 588q15 -234 122 -346.5t310 -112.5q184 0 287 76t103 215t-99 205.5t-274 66.5q-256 0 -449 -104z" />
<glyph unicode="7" horiz-adv-x="1318" d="M80 1325v6q0 34 19.5 54t54.5 20h1009q35 0 55.5 -20t20.5 -54q0 -50 -68 -149l-741 -1141q-25 -41 -74 -41h-18q-61 0 -74 43q-4 20 -4 33q5 15 13 32t24 41t22.5 33.5t28.5 40.5l23 31l655 995h-872q-36 0 -55 20t-19 56z" />
<glyph unicode="8" horiz-adv-x="1464" d="M117 381q0 139 83.5 223.5t219.5 116.5q-118 42 -184 125t-66 196q0 184 146.5 287t416.5 103q267 0 413 -103t146 -287q0 -114 -65.5 -196.5t-182.5 -124.5q137 -32 220.5 -116.5t83.5 -223.5q0 -189 -167.5 -298.5t-447.5 -109.5q-281 0 -448.5 109.5t-167.5 298.5z M293 381q0 -82 59.5 -140.5t156.5 -86t222 -27.5q193 0 318 66t125 188q0 128 -108.5 191t-332.5 63q-226 0 -333 -63t-107 -191zM346 1030q0 -110 103.5 -181t283.5 -71q177 0 281 71t104 181q0 122 -92.5 185t-292.5 63q-387 0 -387 -248z" />
<glyph unicode="9" horiz-adv-x="1423" d="M119 977q0 213 156.5 334t420.5 121q285 0 438.5 -181t153.5 -551q0 -369 -165 -548t-472 -179q-67 0 -154 14t-169 38t-138.5 62t-56.5 79q0 20 12 41l7 12q16 37 55 37q28 0 49 -16q165 -109 395 -109q455 0 461 520q-203 -94 -446 -94q-93 0 -174 15t-150 47.5 t-118.5 81t-77 119t-27.5 157.5zM293 985q0 -141 103 -207.5t278 -66.5q120 0 236.5 27.5t199.5 72.5q-15 239 -117 352t-303 113q-191 0 -294 -78t-103 -213z" />
<glyph unicode=":" horiz-adv-x="561" d="M188 74v41q0 35 20 54t54 19h35q36 0 56 -19t20 -54v-41q0 -35 -20.5 -54.5t-55.5 -19.5h-35q-34 0 -54 19.5t-20 54.5zM188 950v41q0 35 20 54.5t54 19.5h35q35 0 55.5 -19.5t20.5 -54.5v-41q0 -34 -20.5 -53.5t-55.5 -19.5h-35q-34 0 -54 19.5t-20 53.5z" />
<glyph unicode=";" horiz-adv-x="561" d="M22 -246.5q0 4.5 1 8.5q6 25 20 56l104 221q1 2 8 16.5t8.5 18t8 16.5t10 16.5t10.5 14t12 14t13.5 10t16 9t17.5 4.5t21 2h50q34 0 44 -24t-6 -52l-151 -272q-17 -30 -30 -49t-34.5 -38.5t-42.5 -23.5q-10 -2 -30 -2q-43 3 -49 39q0 2 -0.5 6.5t-0.5 9zM188 950v41 q0 35 20 54.5t54 19.5h35q35 0 55.5 -19.5t20.5 -54.5v-41q0 -34 -20.5 -53.5t-55.5 -19.5h-35q-34 0 -54 19.5t-20 53.5z" />
<glyph unicode="&#x3c;" d="M172 629v76q0 10 2 19t8 17l10.5 14t15 12.5t15.5 10.5t18.5 9.5t18 7.5t20 7.5t17.5 6.5l833 297q18 6 31 6q29 0 46.5 -19t17.5 -53q0 -59 -56 -75q-652 -230 -843 -297l843 -297q56 -19 56 -78q0 -32 -17.5 -51t-46.5 -19q-12 0 -29 5t-39.5 14t-31.5 12l-834 299 q-55 15 -55 76z" />
<glyph unicode="=" d="M172 408v4q0 35 19.5 54t54.5 19h903q36 0 56 -19t20 -54v-4q0 -34 -20.5 -54t-55.5 -20h-903q-35 0 -54.5 20t-19.5 54zM172 913v2q0 34 19.5 54t54.5 20h903q35 0 55.5 -20t20.5 -54v-2q0 -35 -20.5 -55t-55.5 -20h-903q-35 0 -54.5 20t-19.5 55z" />
<glyph unicode="&#x3e;" d="M170 297q0 11 3.5 21.5t8 18t14 15t15.5 11.5t19.5 10t19.5 8t21.5 7.5t19.5 6.5l778 273l-844 297q-55 16 -55 75v19q0 26 15.5 40.5t41.5 14.5q21 0 37 -8q234 -79 903 -326q56 -15 56 -75v-76q0 -60 -56 -76q-159 -55 -903 -324q-18 -6 -31 -6q-29 0 -46 20t-17 54z " />
<glyph unicode="?" horiz-adv-x="1191" d="M94 1108q0 14 4 22q17 61 54.5 113t98.5 95.5t154.5 68.5t210.5 25q120 0 215 -29.5t154 -80t90 -114.5t31 -137q0 -66 -17.5 -119t-55.5 -97.5t-77 -76t-102 -73.5q-45 -29 -66.5 -44t-51.5 -39.5t-43.5 -43t-29 -45.5t-22.5 -58.5t-10 -71.5q-5 -29 -24 -46t-50 -17 h-18q-33 0 -53.5 19t-20.5 49q0 74 17 132.5t53 105t78 81t106 74.5q59 38 88.5 59.5t62.5 54.5t46.5 68t13.5 80q0 91 -80 152t-238 61q-284 0 -350 -191q-22 -51 -76 -51q-39 0 -65.5 19t-26.5 55zM451 74v41q0 35 19.5 54t53.5 19h37q34 0 54 -19t20 -54v-41 q0 -35 -20 -54.5t-54 -19.5h-37q-34 0 -53.5 19.5t-19.5 54.5z" />
<glyph unicode="@" horiz-adv-x="1705" d="M96 537q0 173 41 303t130.5 226t240.5 145t362 49q738 0 738 -697q0 -221 -75.5 -324.5t-238.5 -103.5q-87 0 -133 29.5t-86 97.5q-53 -42 -82.5 -62t-84 -39.5t-113.5 -19.5q-334 0 -334 404q0 111 30 191.5t85.5 126.5t125.5 67.5t158 21.5q60 0 116 -7.5t106 -23.5 t80 -44.5t30 -65.5v-385q0 -35 1.5 -53.5t8 -40t20 -32t38 -17.5t61.5 -7q32 0 56.5 7.5t40.5 18.5t27 33.5t17 41t9 54t3.5 59.5t0.5 69q0 107 -18 192t-61 159t-111.5 123.5t-173.5 77.5t-243 28q-150 0 -262 -27.5t-184 -77t-116.5 -126.5t-62.5 -166.5t-18 -206.5 q0 -120 20 -212.5t66.5 -168t121 -124.5t185.5 -75.5t259 -26.5q117 0 193.5 16t211.5 62q12 4 33 4q48 0 57 -43q3 -27 -20 -43q-21 -56 -183 -89.5t-292 -33.5q-410 0 -595.5 185t-185.5 551zM623 545q0 -145 43.5 -204.5t142.5 -59.5q49 0 92.5 18.5t67.5 38.5t65 59v375 q-6 2 -22.5 10t-22 10t-19.5 7.5t-22.5 7t-22.5 4t-28.5 3.5t-32.5 1q-117 0 -179 -60t-62 -210z" />
<glyph unicode="A" horiz-adv-x="1314" d="M39 53q0 22 8 43l488 1243q16 41 51.5 61.5t77.5 20.5q87 0 120 -84l482 -1235q8 -21 8 -43q0 -35 -23.5 -56t-56.5 -21q-27 0 -49.5 15t-32.5 44l-129 336h-655l-125 -328q-11 -31 -36.5 -47t-53.5 -16q-31 0 -52.5 17.5t-21.5 49.5zM385 526h541l-271 709z" />
<glyph unicode="B" horiz-adv-x="1394" d="M256 74v1257q0 34 19.5 54t54.5 20h350q549 0 549 -363q0 -123 -74 -206t-199 -115q68 -11 125.5 -36.5t104 -65.5t72.5 -100t26 -134q0 -203 -145.5 -294t-444.5 -91h-364q-35 0 -54.5 19.5t-19.5 54.5zM422 154h270q221 0 317.5 54t96.5 179t-102 185.5t-312 60.5h-270 v-479zM422 776h268q177 0 270 68.5t93 185.5q0 119 -92.5 170t-282.5 51h-256v-475z" />
<glyph unicode="C" horiz-adv-x="1447" d="M100 700q0 199 88.5 367t244.5 266.5t345 98.5q216 0 354 -83t173 -214q11 -30 6.5 -51.5t-18 -37.5t-34 -22t-41 -4t-39 16t-28.5 37q-32 90 -123.5 146.5t-249.5 56.5q-146 0 -262 -76.5t-179 -208t-63 -291.5q0 -161 64 -291t186.5 -206t282.5 -76q94 0 176 14.5 t122 29t103 42.5q31 11 56 6t37 -25q13 -20 15 -42v-6q0 -19 -12 -40q-14 -24 -42 -38q-56 -26 -104.5 -43.5t-145 -34.5t-205.5 -17q-154 0 -286.5 55.5t-224.5 152.5t-144 231t-52 288z" />
<glyph unicode="D" horiz-adv-x="1566" d="M256 74v1257q0 34 19.5 54t54.5 20h346q179 0 323 -43t248 -127.5t160.5 -217.5t56.5 -306q0 -178 -57.5 -315t-163.5 -223t-250 -129.5t-321 -43.5h-342q-35 0 -54.5 19.5t-19.5 54.5zM422 156h235q113 0 205.5 16.5t174 57t137 103t87 158.5t31.5 220 q0 115 -30.5 205.5t-85.5 152.5t-134.5 102.5t-175 59t-209.5 18.5h-235v-1093z" />
<glyph unicode="E" horiz-adv-x="1335" d="M256 74v1257q0 34 19.5 54t54.5 20h757q35 0 54.5 -19.5t19.5 -58.5q0 -38 -20 -58t-54 -20h-665v-452h625q75 0 75 -76t-75 -76h-625v-489h698q74 0 74 -78t-78 -78h-786q-35 0 -54.5 19.5t-19.5 54.5z" />
<glyph unicode="F" horiz-adv-x="1220" d="M256 74v1257q0 34 19.5 54t54.5 20h714q34 0 54 -20.5t20 -55.5q0 -80 -74 -80h-622v-473h518q34 0 54 -21t20 -57t-19.5 -56.5t-54.5 -20.5h-518v-547q0 -74 -80 -74h-12q-35 0 -54.5 19.5t-19.5 54.5z" />
<glyph unicode="G" horiz-adv-x="1650" d="M100 700q0 149 52.5 284t143 233.5t219.5 156.5t276 58q218 0 365.5 -74.5t219.5 -188.5q17 -28 16.5 -54.5t-18.5 -45t-41 -27t-50.5 0t-47.5 34.5q-63 91 -177.5 145t-266.5 54q-153 0 -272 -77t-182 -207.5t-63 -291.5q0 -160 65 -289.5t188.5 -206.5t283.5 -77 q104 0 199.5 21t148 43.5t113.5 56.5v338h-387q-34 0 -53 19.5t-19 53.5v5q0 35 19 55t53 20h479q35 0 54.5 -20t19.5 -55v-588q0 -76 -80 -76q-74 0 -74 61v37q-209 -125 -477 -125q-202 0 -365 98.5t-252.5 264.5t-89.5 364z" />
<glyph unicode="H" horiz-adv-x="1603" d="M256 74v1257q0 34 19.5 54t54.5 20h20q34 0 53 -20t19 -54v-532h760v532q0 34 19 54t52 20h19q35 0 55.5 -20t20.5 -54v-1257q0 -35 -20.5 -54.5t-55.5 -19.5h-19q-34 0 -52.5 19.5t-18.5 54.5v563h-760v-563q0 -35 -19 -54.5t-53 -19.5h-20q-35 0 -54.5 19.5t-19.5 54.5 z" />
<glyph unicode="I" horiz-adv-x="677" d="M256 74v1257q0 34 19.5 54t54.5 20h20q34 0 53 -20t19 -54v-1257q0 -35 -19 -54.5t-53 -19.5h-20q-35 0 -54.5 19.5t-19.5 54.5z" />
<glyph unicode="J" horiz-adv-x="778" d="M33 70q0 31 15.5 57.5t41.5 26.5q19 0 68 -12.5t78 -12.5q70 0 105.5 33.5t35.5 109.5v1059q0 34 20 54t54 20h18q35 0 54.5 -20t19.5 -54v-1065q0 -142 -75 -217.5t-220 -75.5q-215 0 -215 97z" />
<glyph unicode="K" horiz-adv-x="1349" d="M256 74v1257q0 34 19.5 54t54.5 20h20q34 0 53 -20t19 -54v-614l622 676q34 38 72 38q9 0 19 -2q48 -12 59 -55q3 -12 3 -23q0 -31 -21 -61l-459 -481l545 -688q23 -28 23 -56q1 -19 -9 -35q-24 -44 -72 -48h-8q-42 0 -78 36l-518 664l-178 -186v-422q0 -74 -80 -74h-12 q-35 0 -54.5 19.5t-19.5 54.5z" />
<glyph unicode="L" horiz-adv-x="1177" d="M256 74v1257q0 34 19.5 54t54.5 20h20q34 0 53 -20t19 -54v-1175h641q34 0 54 -19.5t20 -54.5v-8q0 -35 -20 -54.5t-54 -19.5h-733q-35 0 -54.5 19.5t-19.5 54.5z" />
<glyph unicode="M" horiz-adv-x="1884" d="M252 82v1235q0 51 40 83t93 32q84 0 125 -70l432 -762l432 762q41 70 123 70q53 0 93 -32t40 -83v-1235q0 -82 -71 -82h-21q-74 0 -74 84v1092l-420 -744q-34 -61 -102 -61t-102 61l-420 744v-1092q0 -42 -19.5 -63t-54.5 -21h-18q-76 0 -76 82z" />
<glyph unicode="N" horiz-adv-x="1652" d="M256 74v1255q0 43 29 67.5t69 24.5q54 0 82 -39l795 -1095v1044q0 34 20.5 54t55.5 20h16q34 0 54 -20t20 -54v-1251q0 -42 -27.5 -67t-66.5 -25q-56 0 -91 47l-792 1085v-1046q0 -35 -20 -54.5t-54 -19.5h-16q-35 0 -54.5 19.5t-19.5 54.5z" />
<glyph unicode="O" horiz-adv-x="1669" d="M100 700q0 149 58 284t156 233.5t234.5 156.5t285.5 58q200 0 369.5 -98.5t267.5 -267t98 -366.5q0 -197 -98 -364t-267.5 -265t-369.5 -98q-199 0 -368.5 98t-267.5 265.5t-98 363.5zM274 700q0 -118 44 -224t118.5 -182.5t178.5 -121.5t219 -45q116 0 220 45t179 121.5 t118.5 182.5t43.5 224q0 159 -74 291t-203 208.5t-284 76.5q-154 0 -283 -76.5t-203 -208.5t-74 -291z" />
<glyph unicode="P" horiz-adv-x="1372" d="M256 74v1257q0 34 19.5 54t54.5 20h336q275 0 428 -114.5t153 -348.5q0 -102 -32 -182t-86 -131t-128.5 -84.5t-154.5 -47.5t-170 -14q-79 0 -254 19v-428q0 -35 -19 -54.5t-53 -19.5h-20q-35 0 -54.5 19.5t-19.5 54.5zM422 655q132 -18 252 -18q72 0 130 8.5t109.5 30.5 t86.5 56t55 87t20 123q0 160 -109 234.5t-302 74.5h-242v-596z" />
<glyph unicode="Q" horiz-adv-x="1665" d="M100 700q0 149 58 284t156 233.5t234.5 156.5t285.5 58q200 0 369.5 -98.5t267.5 -267t98 -366.5q0 -243 -147.5 -435t-377.5 -259l181 -252q18 -27 18 -51q0 -30 -24 -49t-56 -19q-56 0 -82 43q-26 37 -96 140t-108 157q-58 0 -97 5q-140 8 -266 68.5t-216.5 156 t-144 225t-53.5 270.5zM274 700q0 -118 44 -224t118.5 -182.5t178.5 -121.5t219 -45q116 0 220 45t179 121.5t118.5 182.5t43.5 224q0 159 -74 291t-203 208.5t-284 76.5q-154 0 -283 -76.5t-203 -208.5t-74 -291z" />
<glyph unicode="R" horiz-adv-x="1390" d="M256 74v1257q0 34 19.5 54t54.5 20h315q594 0 594 -428q0 -164 -84 -262.5t-225 -136.5l299 -465q12 -28 12 -52q-1 -23 -11 -41q-22 -37 -70 -37q-2 1 -4 1q-52 2 -81 53l-315 504q-92 -6 -146 -6q-62 0 -192 10v-471q0 -35 -19 -54.5t-53 -19.5h-20q-35 0 -54.5 19.5 t-19.5 54.5zM422 700q163 -10 209 -10q217 0 325.5 67.5t108.5 213.5q0 66 -22 116t-59 81t-92.5 50t-115.5 26t-135 7h-219v-551z" />
<glyph unicode="S" horiz-adv-x="1318" d="M143 178q0 35 24.5 60.5t51.5 25.5q25 0 45 -14q92 -63 184 -92t218 -29q150 0 234.5 62t84.5 171q0 51 -28 90t-75.5 64.5t-109 47t-130 41.5t-136.5 43t-129.5 57t-109 78t-75.5 111.5t-28 152.5q0 174 134.5 279.5t356.5 105.5q89 0 164.5 -19t127.5 -49.5t91.5 -71 t61.5 -79.5t33 -80q10 -31 4 -52.5t-20.5 -37t-35.5 -20t-41.5 -1.5t-38.5 18.5t-26 40.5q-26 85 -106.5 140t-221.5 55q-146 0 -226.5 -56.5t-80.5 -164.5q0 -68 35.5 -119t93 -81t131.5 -57.5t150.5 -47.5t150.5 -52t131.5 -70.5t93 -104t35.5 -150.5q0 -188 -134 -294 t-370 -106q-72 0 -159 14.5t-167 40t-134 65.5t-54 85z" />
<glyph unicode="T" horiz-adv-x="1245" d="M80 1323v8q0 34 19.5 54t54.5 20h938q34 0 53.5 -20t19.5 -54v-8q0 -35 -19.5 -54.5t-53.5 -19.5h-387v-1175q0 -35 -19.5 -54.5t-54.5 -19.5h-19q-35 0 -54 19.5t-19 54.5v1175h-385q-35 0 -54.5 19.5t-19.5 54.5z" />
<glyph unicode="U" horiz-adv-x="1507" d="M227 516v815q0 34 19.5 54t54.5 20h18q35 0 54.5 -20t19.5 -54v-815q0 -88 17 -155t57 -121.5t113.5 -83.5t177.5 -29q103 0 175 28t111.5 82t56.5 121.5t17 157.5v815q0 34 18.5 54t53.5 20h16q35 0 55.5 -20t20.5 -54v-815q0 -121 -28.5 -217t-88.5 -170.5t-163 -115 t-244 -40.5q-143 0 -248 40.5t-165.5 115t-89 170.5t-28.5 217z" />
<glyph unicode="V" horiz-adv-x="1466" d="M74 1346q0 36 24.5 58.5t57.5 22.5q54 0 77 -55l498 -1186l502 1186q24 55 78 55q32 0 57 -23t25 -58q0 -14 -11 -43l-534 -1254q-31 -76 -117 -76q-84 0 -115 76l-532 1254q-10 27 -10 43z" />
<glyph unicode="W" horiz-adv-x="2037" d="M84 1339q0 38 27 64.5t61 26.5q58 0 78 -70l317 -1170l344 1147q12 40 43 62t68 22q36 0 66 -22t42 -62l340 -1147l316 1166q9 34 32 51.5t52 17.5q33 0 57.5 -21.5t24.5 -57.5q0 -11 -4 -31l-344 -1239q-13 -47 -52 -74t-84 -27q-40 0 -72.5 21.5t-43.5 62.5l-334 1127 l-334 -1123q-13 -43 -48 -66.5t-77 -23.5q-41 0 -73.5 23t-43.5 67l-354 1250q-4 20 -4 26z" />
<glyph unicode="X" horiz-adv-x="1345" d="M90 47q0 30 23 59l462 615l-423 575q-21 27 -21 56q0 32 22 53.5t54 21.5q49 0 86 -51l393 -532l399 538q34 45 78 45q31 0 53.5 -22t22.5 -53q0 -28 -18 -52l-439 -587l447 -602q22 -31 22 -60q0 -33 -23.5 -55.5t-56.5 -22.5q-44 0 -75 45l-422 572l-428 -567 q-36 -48 -82 -48q-31 0 -52.5 20.5t-21.5 51.5z" />
<glyph unicode="Y" horiz-adv-x="1282" d="M82 1354q0 32 23.5 54t54.5 22q43 0 73 -46l408 -665l408 663q27 45 73 45q32 0 55 -20t23 -51q0 -23 -14 -45l-463 -756v-481q0 -35 -19.5 -54.5t-54.5 -19.5h-18q-35 0 -54.5 19.5t-19.5 54.5v481l-461 752q-14 22 -14 47z" />
<glyph unicode="Z" horiz-adv-x="1280" d="M121 92q0 44 29 86l776 1071h-713q-74 0 -74 78t74 78h815q48 0 76.5 -28t28.5 -70q0 -41 -31 -86l-768 -1067h756q34 0 53.5 -19.5t19.5 -54.5q0 -38 -18.5 -59t-54.5 -21h-871q-47 0 -72.5 26t-25.5 66z" />
<glyph unicode="[" horiz-adv-x="780" d="M256 -389v1821q0 34 19.5 53.5t54.5 19.5h297q34 0 53.5 -18.5t19.5 -52.5t-19.5 -53t-53.5 -19h-215v-1681h215q73 0 73 -70q0 -34 -19.5 -53t-53.5 -19h-297q-35 0 -54.5 19t-19.5 53z" />
<glyph unicode="\" horiz-adv-x="987" d="M90 1356q0 26 18 41.5t48 15.5q10 0 19 -2t16 -5t15 -10t13.5 -11.5t12.5 -15t10.5 -16t10.5 -19t9.5 -18.5t9.5 -20.5t9 -19.5l604 -1188q10 -20 10 -37q0 -25 -18 -40t-46 -15q-56 0 -81 49l-648 1272q-12 21 -12 39z" />
<glyph unicode="]" horiz-adv-x="780" d="M80 -391q0 72 74 72h215v1681h-215q-74 0 -74 72q0 33 19.5 52t54.5 19h297q34 0 53.5 -19.5t19.5 -53.5v-1821q0 -34 -19.5 -53t-53.5 -19h-297q-74 0 -74 70z" />
<glyph unicode="^" d="M158 764q12 37 84 129q60 80 352 475q26 37 72 37h61q45 0 72 -37l356 -475q7 -10 29.5 -39t36.5 -51t18 -39q4 -15 -2 -27q-5 -39 -68 -39q-8 0 -16 1.5t-15.5 5t-13 6t-13 9.5t-11.5 10.5t-11.5 13t-10.5 13t-11.5 15t-11.5 14.5l-359 474l-354 -474q-3 -4 -17 -21.5 t-18.5 -22l-16.5 -16.5t-19.5 -16t-19.5 -8t-24 -4q-59 0 -65 39q-4 8 -4 27z" />
<glyph unicode="_" horiz-adv-x="1421" d="M63 -98q0 34 20.5 52.5t55.5 18.5h1139q35 0 55.5 -18.5t20.5 -52.5v-4q0 -35 -20.5 -54.5t-55.5 -19.5h-1139q-35 0 -55.5 19.5t-20.5 54.5v4z" />
<glyph unicode="`" horiz-adv-x="1081" d="M373 1477q0 24 19.5 39.5t47.5 15.5q52 0 82 -43l172 -219q13 -20 13 -37q0 -23 -17.5 -38t-42.5 -15q-40 0 -69 39l-189 219q-16 22 -16 39z" />
<glyph unicode="a" horiz-adv-x="1165" d="M131 287q0 327 475 327q81 0 199 -12v152q0 192 -223 192q-89 0 -144.5 -34t-103.5 -111q-19 -31 -62 -31q-32 0 -55.5 19.5t-23.5 48.5q0 17 8 30q45 101 145.5 161.5t245.5 60.5q379 0 379 -340v-543q0 -52 15.5 -75t51.5 -23q15 0 39 3t31 3q18 0 35.5 -14.5 t17.5 -41.5q0 -40 -47.5 -63t-105.5 -23q-158 0 -181 162q-64 -66 -162 -114t-210 -48q-145 0 -234.5 83.5t-89.5 230.5zM301 293q0 -176 188 -176q89 0 171 41.5t145 111.5v197q-110 14 -199 14q-146 0 -225.5 -41.5t-79.5 -146.5z" />
<glyph unicode="b" horiz-adv-x="1337" d="M229 160v1276q0 38 24.5 59t57.5 21q35 0 59.5 -21t24.5 -59v-443q43 26 77.5 43.5t101 35.5t135.5 18q121 0 219.5 -43t161.5 -118.5t97 -176t34 -217.5q0 -155 -66 -283t-188.5 -203.5t-278.5 -75.5q-115 0 -224 28.5t-185 76.5q-50 37 -50 82zM395 184 q40 -26 117.5 -46.5t171.5 -20.5q167 0 266 119.5t99 298.5q0 178 -92 294.5t-259 116.5q-160 0 -303 -96v-666z" />
<glyph unicode="c" horiz-adv-x="1183" d="M115 535q0 154 66 280t189.5 200.5t280.5 74.5q160 0 263 -72t137 -191q4 -14 4 -26q0 -21 -11 -39q-17 -28 -45.5 -35.5t-58 6.5t-41.5 51q-22 63 -82.5 112.5t-165.5 49.5q-168 0 -268 -117.5t-100 -293.5q0 -179 100 -298.5t268 -119.5t297 82q29 17 51 17q7 0 15 -2 q28 -8 43 -28q11 -14 11 -33q0 -8 -2 -18q-7 -31 -38 -53q-158 -109 -381 -109q-158 0 -280.5 76t-187 203t-64.5 283z" />
<glyph unicode="d" horiz-adv-x="1361" d="M117 535q0 155 62 280.5t180 200t272 74.5q171 0 315 -70v416q0 38 24.5 59t57.5 21q36 0 61 -21t25 -59v-1227q0 -84 88 -88q15 -2 41.5 2t45.5 3t28 -15q26 -7 26 -50t-50 -65.5t-117 -22.5q-184 0 -211 148q-46 -54 -143.5 -101t-209.5 -47q-153 0 -267 76t-171 202.5 t-57 283.5zM285 535q0 -182 88.5 -299t253.5 -117q100 0 183 41.5t136 103.5v602q-140 80 -315 80q-109 0 -188.5 -56t-118.5 -148t-39 -207z" />
<glyph unicode="e" horiz-adv-x="1214" d="M115 535q0 117 32 217.5t92.5 176t154 118.5t210.5 43q115 0 210.5 -36.5t157 -99t95 -143t33.5 -170.5v-55q0 -35 -19 -54.5t-53 -19.5h-741q6 -172 100.5 -282.5t261.5 -110.5q75 0 141 12.5t101.5 27.5t67 27.5t47.5 12.5q28 0 45.5 -19.5t17.5 -50.5q0 -39 -65 -76 t-163.5 -58.5t-195.5 -21.5q-156 0 -278 75.5t-187 203.5t-65 283zM295 645h637q0 141 -89 221t-237 80q-137 0 -212 -82t-99 -219z" />
<glyph unicode="f" horiz-adv-x="663" d="M-90 -356q0 32 19 53.5t44 21.5q21 0 60 -10t63 -10q144 0 144 137v1090h-134q-34 0 -53.5 19t-19.5 54q0 31 19.5 48.5t53.5 17.5h136v86q0 362 368 362h35t34.5 -1t36.5 -3t32 -5.5t30 -9.5t22 -14.5t16 -20.5t5 -27q0 -33 -16.5 -53.5t-46.5 -20.5q-22 0 -67 7t-79 7 q-110 0 -158 -48t-48 -171v-88h258q34 0 53.5 -17t19.5 -47q0 -35 -20.5 -55t-57.5 -20h-253v-1102q0 -137 -80 -207t-211 -70q-49 0 -93 8t-78 31t-34 58z" />
<glyph unicode="g" horiz-adv-x="1263" d="M115 535q0 155 60.5 280.5t176.5 200t269 74.5q62 0 116.5 -10.5t100.5 -31.5t67.5 -33t55.5 -34v25q0 59 75 59q76 0 76 -78v-977q0 -233 -132.5 -351t-373.5 -118q-111 0 -213 21.5t-164.5 58t-62.5 76.5q0 31 18.5 51.5t46.5 20.5t80 -21t128 -42t163 -21 q176 0 260 76t84 247v86q-128 -114 -321 -114q-159 0 -276 74.5t-175.5 199t-58.5 281.5zM283 535q0 -181 89 -296.5t253 -115.5q53 0 100.5 10.5t75 21t62.5 36t44.5 34.5t38.5 37v574q-2 1 -34.5 21t-44 26t-45.5 22t-58.5 22t-62.5 12.5t-76 6.5q-110 0 -188.5 -56 t-116 -147.5t-37.5 -207.5z" />
<glyph unicode="h" horiz-adv-x="1314" d="M229 74v1362q0 38 24.5 59t57.5 21q35 0 59.5 -21t24.5 -59v-445q173 99 344 99q187 0 281 -90.5t94 -280.5v-645q0 -35 -20 -54.5t-54 -19.5h-18q-35 0 -55.5 19.5t-20.5 54.5v631q0 124 -57.5 178.5t-177.5 54.5q-163 0 -316 -90v-774q0 -35 -19 -54.5t-54 -19.5h-19 q-35 0 -54.5 19.5t-19.5 54.5z" />
<glyph unicode="i" horiz-adv-x="626" d="M229 74v917q0 35 19.5 54.5t54.5 19.5h19q35 0 54 -19.5t19 -54.5v-917q0 -35 -19 -54.5t-54 -19.5h-19q-35 0 -54.5 19.5t-19.5 54.5zM229 1374v66q0 35 19.5 55.5t54.5 20.5h19q35 0 54 -20t19 -56v-66q0 -34 -19 -52.5t-54 -18.5h-19q-35 0 -54.5 18.5t-19.5 52.5z " />
<glyph unicode="j" horiz-adv-x="618" d="M-125 -362q0 37 18.5 60t40.5 23q20 0 67.5 -10t70.5 -10q68 0 112.5 30.5t44.5 100.5v1159q0 35 19.5 54.5t54.5 19.5h19q73 0 73 -72v-1102q0 -178 -75 -261t-230 -83q-33 0 -67 4t-69 13.5t-57 28.5t-22 45zM229 1374v66q0 35 19.5 55.5t54.5 20.5h19q35 0 54 -20 t19 -56v-66q0 -34 -19 -52.5t-54 -18.5h-19q-35 0 -54.5 18.5t-19.5 52.5z" />
<glyph unicode="k" horiz-adv-x="1148" d="M229 74v1362q0 38 24.5 59t57.5 21q35 0 59.5 -21t24.5 -59v-881l523 498q31 30 64 30q10 0 22 -3q46 -12 52 -52q1 -7 2 -13q0 -33 -32 -69l-346 -317l393 -512q16 -21 21 -42q2 -10 2 -19q0 -10 -2 -18q-6 -16 -17.5 -30t-28.5 -20.5t-35 -7.5h-3q-16 0 -34 8 q-18 10 -32 28l-383 502l-166 -151v-293q0 -35 -19 -54.5t-54 -19.5h-19q-35 0 -54.5 19.5t-19.5 54.5z" />
<glyph unicode="l" horiz-adv-x="688" d="M227 248v1188q0 38 24.5 59t57.5 21q35 0 59.5 -21t24.5 -59v-1188q0 -57 17.5 -89t64.5 -32q27 0 54 5t32 5q35 -1 53 -29q11 -18 12 -38q0 -12 -4 -24q-10 -34 -44 -48q-64 -25 -127 -25q-114 0 -169 71.5t-55 203.5z" />
<glyph unicode="m" horiz-adv-x="1998" d="M227 74v917q0 35 18 54.5t52 19.5h20q66 0 66 -66v-43q164 134 350 134q231 0 316 -148q65 43 94 60.5t81.5 43t103.5 35t114 9.5q356 0 356 -369v-647q0 -35 -19.5 -54.5t-54.5 -19.5h-18q-35 0 -55.5 19.5t-20.5 54.5v624q0 126 -54 182t-173 56q-60 0 -123 -21 t-98 -40.5t-88 -53.5l2 -747q0 -35 -19.5 -54.5t-54.5 -19.5h-18q-35 0 -54.5 19.5t-19.5 54.5v616q0 132 -50.5 189t-179.5 57q-26 0 -51.5 -3t-44 -6.5t-42.5 -13t-36 -14t-36.5 -18.5l-31.5 -18t-34 -21.5t-31 -20.5v-747q0 -35 -19.5 -54.5t-54.5 -19.5h-18 q-35 0 -54.5 19.5t-19.5 54.5z" />
<glyph unicode="n" horiz-adv-x="1310" d="M227 74v917q0 74 68 74h18q29 0 48.5 -15.5t19.5 -50.5v-47q63 51 157.5 94.5t194.5 43.5q192 0 284.5 -97.5t92.5 -271.5v-647q0 -35 -20 -54.5t-54 -19.5h-18q-35 0 -54.5 19.5t-19.5 54.5v624q0 120 -66 180t-176 60q-148 0 -309 -117v-747q0 -35 -19.5 -54.5 t-54.5 -19.5h-18q-35 0 -54.5 19.5t-19.5 54.5z" />
<glyph unicode="o" horiz-adv-x="1331" d="M115 535q0 153 70.5 280t197 201t281.5 74q158 0 285 -74t197.5 -201t70.5 -280q0 -154 -70.5 -282.5t-197.5 -204t-285 -75.5q-155 0 -281.5 75.5t-197 204t-70.5 282.5zM283 535q0 -176 106.5 -296t274.5 -120q170 0 277.5 119.5t107.5 296.5q0 174 -107.5 292.5 t-277.5 118.5q-167 0 -274 -119t-107 -292z" />
<glyph unicode="p" horiz-adv-x="1341" d="M229 -371v1362q0 74 68 74h20q64 0 64 -70v-45q55 49 151.5 94.5t206.5 45.5q151 0 262.5 -74.5t167.5 -200t56 -285.5q0 -155 -61.5 -281t-180.5 -201t-276 -75q-93 0 -159.5 16t-152.5 50v-410q0 -41 -24 -61.5t-60 -20.5q-34 0 -58 20.5t-24 61.5zM395 188 q84 -36 151.5 -52.5t160.5 -16.5q167 0 258.5 115t91.5 296q0 118 -35 210t-112 149t-187 57q-164 0 -328 -133v-625z" />
<glyph unicode="q" horiz-adv-x="1341" d="M115 535q0 159 59.5 284t175.5 198t271 73q62 0 116 -11t98.5 -32.5t66.5 -35t54 -36.5v37q0 53 68 53h18q68 0 68 -70v-1366q0 -41 -24 -61.5t-60 -20.5q-34 0 -57 20.5t-23 61.5v461q-54 -46 -137 -81.5t-184 -35.5q-157 0 -274 74.5t-176.5 201t-59.5 286.5zM283 535 q0 -184 89.5 -300t252.5 -116q47 0 92 10t74 22t64 35.5t48.5 35t42.5 36.5v565q-1 1 -19 13.5t-23 16t-23.5 15.5t-28 17t-29.5 15.5t-34 15t-35.5 11.5t-40 10.5t-42 6t-46.5 2.5q-112 0 -190.5 -55.5t-115 -146.5t-36.5 -209z" />
<glyph unicode="r" horiz-adv-x="968" d="M229 76v915q0 74 72 74h18q66 0 66 -66v-51q56 56 131.5 99t149.5 43q104 0 168.5 -61.5t64.5 -149.5q0 -32 -22.5 -53t-63.5 -21q-21 0 -35 13.5t-24.5 32.5t-23.5 38.5t-38.5 33t-62.5 13.5q-58 0 -124 -36t-110 -89v-735q0 -76 -73 -76h-19q-35 0 -54.5 19.5 t-19.5 56.5z" />
<glyph unicode="s" horiz-adv-x="1103" d="M150 150q0 27 18.5 51t42.5 24t45 -16q129 -92 281 -92q115 0 184.5 40t69.5 115q0 37 -21.5 66t-58 49t-83.5 36.5t-99 33t-104.5 34.5t-99.5 44t-83.5 59t-58 82.5t-21.5 111.5q0 137 106 219.5t279 82.5q171 0 280 -73.5t109 -182.5q0 -28 -19 -47t-51 -19 q-28 0 -43.5 8t-27.5 31q-63 139 -246 139q-98 0 -159.5 -37.5t-61.5 -111.5q0 -50 34.5 -85.5t89.5 -58t122 -42t134 -44.5t122 -57.5t89.5 -89.5t34.5 -133q0 -149 -115 -231.5t-307 -82.5q-151 0 -266.5 57.5t-115.5 119.5z" />
<glyph unicode="t" horiz-adv-x="819" d="M49 995q0 31 20.5 50.5t53.5 19.5h121v227q0 82 80 82q37 0 57 -21t20 -61v-227h242q33 0 53.5 -19.5t20.5 -50.5t-20 -50t-52 -19h-244v-658q0 -76 25 -105.5t90 -29.5q69 0 143 45q13 8 35 4q20 -3 34.5 -25t14.5 -51q0 -57 -80.5 -95t-173.5 -38q-132 0 -192.5 66.5 t-60.5 204.5v682h-113q-34 0 -54 18t-20 51z" />
<glyph unicode="u" horiz-adv-x="1259" d="M201 389v602q0 35 19.5 54.5t53.5 19.5h19q35 0 54.5 -19.5t19.5 -54.5v-600q0 -131 69.5 -201.5t194.5 -70.5q124 0 193 70.5t69 201.5v600q0 35 19 54.5t53 19.5h20q34 0 54 -19.5t20 -54.5v-602q0 -192 -113 -304t-315 -112q-206 0 -318 111.5t-112 304.5z" />
<glyph unicode="v" horiz-adv-x="1165" d="M49 1012q0 34 24.5 56t57.5 22q61 0 86 -62l365 -864l366 862q26 64 84 64q33 0 57.5 -23t24.5 -59q0 -22 -8 -41l-395 -908q-38 -86 -129 -86q-89 0 -127 86l-396 910q-10 23 -10 43z" />
<glyph unicode="w" horiz-adv-x="1693" d="M37 1014q0 34 25 55t59 21q61 0 78 -54l252 -856l284 840q22 70 109 70q85 0 110 -70l285 -840l256 856q18 54 78 54q33 0 57.5 -21t24.5 -55q0 -17 -6 -35l-291 -928q-11 -38 -41 -58t-66 -20t-68 20t-44 54l-293 836l-295 -836q-12 -34 -44 -54t-69 -20q-36 0 -66.5 20 t-41.5 58l-285 928q-8 24 -8 35z" />
<glyph unicode="x" horiz-adv-x="1155" d="M96 47q0 28 25 59l356 429l-350 421q-23 26 -23 56q0 32 23.5 55t54.5 23q38 0 66 -35l334 -402l325 400q32 37 72 37q30 0 52 -20.5t22 -49.5q0 -31 -23 -57l-352 -424l354 -435q21 -27 21 -53q0 -32 -24.5 -55t-57.5 -23q-38 0 -62 31l-338 416l-340 -414 q-26 -33 -61 -33q-30 0 -52 22t-22 52z" />
<glyph unicode="y" horiz-adv-x="1146" d="M-39 -391q0 30 19.5 54t48.5 24q11 0 45 -7.5t65 -7.5q53 0 99.5 20.5t81 52t69.5 85t59.5 102.5t57.5 123l-420 918q-10 23 -10 41q0 33 24.5 54.5t57.5 21.5q55 0 82 -58l348 -790l338 790q11 28 34.5 43t49.5 15q32 0 54.5 -21t22.5 -55q0 -27 -10 -47l-411 -938 q-43 -97 -78.5 -165t-84.5 -137t-100 -110.5t-120 -67.5t-150 -26q-172 0 -172 86z" />
<glyph unicode="z" horiz-adv-x="1116" d="M120 48q-4 13 -4 25q0 34 29 66l627 785h-575q-72 0 -72 71q0 34 19 52t53 18h714q63 1 79 -49q5 -14 5 -29q0 -34 -28 -67l-621 -779h594q36 0 56 -18t20 -53q0 -33 -20 -51.5t-56 -18.5h-747q-59 0 -73 48z" />
<glyph unicode="{" horiz-adv-x="851" d="M49 530q0 25 26 43t63 30.5t74 29t63 49t26 80.5v391q0 196 85.5 283.5t260.5 87.5q33 0 57.5 -2.5t52.5 -9t43 -23t15 -41.5q0 -34 -15 -52t-38 -18q-16 0 -52 4t-53 4q-202 0 -202 -163v-387q0 -67 -5 -109t-21.5 -85.5t-51.5 -72t-92 -45.5q170 -50 170 -237v-459 q0 -87 55.5 -125.5t146.5 -38.5q12 0 50 1.5t57 0.5q51 -6 51 -67q0 -72 -168 -72q-70 0 -130.5 17t-109.5 51.5t-77.5 92.5t-28.5 134v467q0 24 -5.5 44.5t-19 37t-25 28t-36 24.5t-38 19.5t-45 19.5t-44.5 19q-39 6 -39 49z" />
<glyph unicode="|" horiz-adv-x="665" d="M256 -389v1821q0 34 19.5 53.5t54.5 19.5h6q34 0 54 -19.5t20 -53.5v-1821q0 -34 -20 -53t-54 -19h-6q-35 0 -54.5 19t-19.5 53z" />
<glyph unicode="}" horiz-adv-x="851" d="M37 -397q0 59 47 65q18 1 56 -1.5t53 -2.5q91 0 146.5 38.5t55.5 125.5v459q0 187 172 237q-57 17 -93 45.5t-52.5 72t-21.5 85.5t-5 109v387q0 86 -55 124.5t-145 38.5q-18 0 -53 -4t-50 -4q-25 0 -40 19.5t-15 52.5q0 74 168 74q175 0 260.5 -87.5t85.5 -283.5v-391 q0 -44 26 -76t63 -49t74 -31t63 -32.5t26 -43.5q0 -43 -41 -49q-13 -6 -43.5 -19t-44.5 -19.5t-38 -19.5t-35.5 -24.5t-25 -28t-19 -37t-5.5 -44.5v-467q0 -76 -28.5 -134t-78 -92.5t-110 -51.5t-129.5 -17q-36 0 -59.5 2t-51.5 9t-42.5 23t-14.5 42z" />
<glyph unicode="~" d="M156 635q27 71 103.5 110t178.5 39q86 0 270.5 -46t239.5 -46q51 0 86.5 14.5t62 37t36.5 26.5q14 11 28 8q20 0 35.5 -12.5t17.5 -26.5q26 -15 23 -43q-23 -68 -103.5 -108.5t-179.5 -40.5q-80 0 -263 46t-247 46q-47 0 -83.5 -13.5t-54 -29.5t-35 -29.5t-31.5 -13.5 q-27 0 -53 18t-29 41q-2 6 -2 23z" />
<glyph unicode="&#xa1;" horiz-adv-x="690" d="M250 950v41q0 35 19.5 54.5t54.5 19.5h36q34 0 53 -19.5t19 -54.5v-41q0 -34 -19 -53.5t-53 -19.5h-36q-35 0 -54.5 19.5t-19.5 53.5zM254 -268l10 917q0 34 19.5 53t54.5 19h10q34 0 53 -19t21 -53l8 -917q0 -35 -19 -55.5t-53 -20.5h-28q-36 0 -56 20t-20 56z" />
<glyph unicode="&#xa2;" horiz-adv-x="1355" d="M139 674q0 253 122 389t347 158v215q0 33 20 51t54 18q25 0 40.5 -9.5t22 -30.5t8 -38.5t1.5 -48.5v-153q183 -9 292.5 -82.5t137.5 -184.5q0 -3 1 -8t1 -8q0 -31 -28 -49.5t-66 -18.5q-16 -1 -36.5 20.5t-47 52t-62.5 61t-98.5 52t-140.5 21.5q-92 0 -160 -19 t-122.5 -64t-83 -127t-28.5 -199q0 -406 430 -406q145 0 281 47q20 7 74 29q9 2 26 -2q22 -5 38 -26t16 -52q0 -57 -133 -98.5t-291 -46.5v-162q0 -30 -2 -49t-8.5 -40t-22.5 -31.5t-41 -10.5t-40.5 10.5t-22 32.5t-8 40t-1.5 48v170q-223 31 -346 165t-123 384z" />
<glyph unicode="&#xa3;" d="M35 690q0 24 10 38.5t31 20.5t39 7.5t49 1.5h137q-20 172 -20 231q0 72 16 134.5t55 119.5t98 98t150 65t207 24t208 -25.5t151 -70t94.5 -97.5t50.5 -115q4 -12 4 -20q0 -31 -33 -50.5t-68 -19.5q-45 0 -63 51q-14 41 -35 71.5t-59.5 60t-102.5 45.5t-151 16 q-97 0 -167.5 -22t-110.5 -62t-58 -90t-18 -113q0 -33 3 -69t9 -88t8 -74h557q74 0 74 -72q0 -32 -20 -48.5t-54 -16.5h-543q3 -28 8.5 -75.5t8 -79.5t2.5 -60q0 -82 -34.5 -141.5t-105.5 -110.5h781q34 0 51.5 -1.5t42 -7.5t36 -22.5t11.5 -42.5q0 -37 -19 -58.5t-55 -21.5 h-985q-22 0 -34 0.5t-32 2.5t-31 6.5t-23 12.5t-17.5 21t-5.5 31q0 51 49 73q99 53 150 117.5t51 149.5q0 38 -8.5 113t-10.5 94h-147q-27 0 -39.5 0.5t-34 4t-31.5 10t-18 20.5t-8 34z" />
<glyph unicode="&#xa4;" d="M86 268q0 8 3 16t9.5 16.5t12.5 14.5t17 15t17.5 13.5t20 14t18.5 13.5l117 84q-80 90 -80 213q0 125 80 215l-117 84q-4 3 -15.5 11t-17 11.5t-16 11.5t-15.5 13l-12.5 12.5t-11 13.5t-6 13t-2.5 14q0 25 22 50.5t46 25.5q31 0 118 -68l134 -94q116 74 290 74 q175 0 291 -74l133 94q87 66 113 66q25 0 49.5 -24t24.5 -50q0 -11 -5.5 -21.5t-18 -22t-21.5 -18.5t-28 -20.5t-24 -17.5l-116 -84q80 -94 80 -215q0 -119 -80 -213l116 -84q23 -16 32.5 -23t28 -22.5t26.5 -29t8 -26.5q0 -24 -21 -49.5t-45 -25.5q-27 0 -67 24t-110.5 79 t-74.5 58q-115 -73 -291 -73q-175 0 -290 73l-134 -96q-4 -3 -15.5 -11t-17.5 -12.5t-16.5 -11.5t-18 -11t-16.5 -8.5t-16.5 -6.5t-13.5 -2q-24 0 -49 23.5t-25 47.5zM377 668q0 -107 87 -173.5t234 -66.5q148 0 235 66.5t87 173.5q0 108 -87 174.5t-235 66.5t-234.5 -66.5 t-86.5 -174.5z" />
<glyph unicode="&#xa5;" d="M82 1350q0 30 24 45.5t62 15.5q50 0 82 -43l450 -580l412 529q2 3 12.5 16t14 17t13.5 15t15.5 15.5t15 12t17 10.5t17.5 5.5t20 2.5q36 0 59 -15t23 -42q0 -24 -59 -97l-394 -501h346q29 0 51.5 -16t22.5 -50q0 -30 -20.5 -48.5t-53.5 -18.5h-432v-541q0 -37 -24 -59.5 t-62 -22.5q-37 0 -57.5 21.5t-20.5 56.5v545h-436q-33 0 -53.5 18.5t-20.5 48.5q0 34 22.5 50t51.5 16h348l-426 544q-20 26 -20 50z" />
<glyph unicode="&#xa6;" horiz-adv-x="665" d="M256 250q0 35 19.5 55.5t54.5 20.5h6q34 0 54 -20.5t20 -55.5v-639q0 -34 -20 -53t-54 -19h-6q-35 0 -54.5 19t-19.5 53v639zM256 793v639q0 34 19.5 53.5t54.5 19.5h6q34 0 54 -19.5t20 -53.5v-639q0 -35 -20 -54.5t-54 -19.5h-6q-35 0 -54.5 19.5t-19.5 54.5z" />
<glyph unicode="&#xa7;" horiz-adv-x="1456" d="M133 774q0 143 123 238q-10 30 -10 73q0 69 27 127t72.5 97.5t107.5 67t131 40.5t143 13q109 0 197 -23.5t145.5 -64.5t93.5 -87.5t54 -99.5q4 -8 4 -27q0 -28 -20.5 -45t-55.5 -20q-31 -3 -49 29q-21 15 -58 71q-93 125 -315 125q-137 0 -223 -52t-86 -144 q0 -56 50.5 -100.5t131 -76t178 -61t195.5 -63.5t178.5 -74.5t131 -103t50.5 -140.5q0 -145 -129 -227q14 -28 14 -76q0 -118 -70.5 -199t-185.5 -117t-266 -36q-63 0 -148 13t-168.5 36.5t-141.5 62.5t-58 84q0 20 14 41t31 25q10 6 35 6q18 -5 57 -27.5t49 -27.5 q157 -72 334 -72q155 0 248.5 49.5t93.5 143.5q0 50 -50 91.5t-129.5 72t-176 60.5t-193.5 65.5t-176.5 78.5t-129.5 108t-50 146zM283 786q0 -63 58.5 -111.5t156 -83t202.5 -65.5t220 -77t186 -99q65 47 65 111q0 61 -70.5 110.5t-179.5 85t-222.5 68.5t-216 78.5 t-144.5 97.5q-55 -44 -55 -115z" />
<glyph unicode="&#xa8;" horiz-adv-x="1081" d="M254 1350q0 88 74 88h12q72 0 72 -90q0 -91 -72 -91h-12q-74 0 -74 93zM666 1350q0 44 16.5 66t56.5 22h13q73 0 73 -90q0 -91 -73 -91h-13q-73 0 -73 93z" />
<glyph unicode="&#xa9;" horiz-adv-x="1753" d="M96 702q0 163 48.5 295.5t143.5 230t245 151t344 53.5q193 0 342.5 -53.5t244.5 -151t143 -230t48 -295.5q0 -164 -48 -296.5t-143 -229.5t-244 -150t-343 -53t-344 53t-245 150t-143.5 229.5t-48.5 296.5zM213 702q0 -141 38 -252.5t116.5 -194.5t207.5 -127t302 -44 q172 0 300.5 44t207.5 127t117 194.5t38 252.5t-38.5 252.5t-117 194.5t-207 127.5t-300.5 44.5q-173 0 -302 -44.5t-207.5 -128t-116.5 -194.5t-38 -252zM438 700q0 225 117 337t324 112q138 0 243 -64t105 -149q0 -27 -21 -43.5t-51 -18.5q-20 0 -35 19q-12 8 -34 33 t-41.5 43.5t-62.5 34.5t-101 16q-143 0 -219 -74t-76 -246q0 -168 81 -242.5t242 -74.5q110 0 207 39q30 10 41 10q23 0 42.5 -21t19.5 -49q0 -43 -104 -73.5t-216 -30.5q-215 0 -338 108.5t-123 333.5z" />
<glyph unicode="&#xaa;" horiz-adv-x="935" d="M90 883q0 57 24.5 101t65 70.5t100.5 43.5t123.5 23.5t141.5 6.5q51 0 71 -2v74q0 117 -176 117q-54 0 -90.5 -11.5t-51.5 -25.5t-37 -38.5t-40 -37.5q-18 -9 -41 -6q-45 10 -45 55q0 55 47 96.5t116 61t144 19.5q139 0 222.5 -60.5t83.5 -165.5v-356q0 -27 12 -39.5 t39 -13.5q2 0 13.5 -0.5t17.5 -1.5t17 -2.5t17 -4t13.5 -6.5t10.5 -11t3 -15q0 -35 -30.5 -56.5t-88.5 -21.5q-52 0 -89 24t-50 70q-108 -92 -268 -92q-113 0 -194 52.5t-81 152.5zM227 891q0 -47 42 -72.5t116 -25.5q136 0 231 88v139q-23 2 -67 2q-72 0 -124 -5t-100 -18 t-73 -40t-25 -68z" />
<glyph unicode="&#xab;" horiz-adv-x="1447" d="M135 600q0 26 23 49l350 348q20 21 32.5 32.5t34 22.5t43.5 11q58 0 66 -31q4 -16 0 -26q-6 -13 -55 -74l-312 -332l312 -334q5 -6 19.5 -23t22.5 -28.5t13 -21.5q4 -10 0 -27q-8 -31 -66 -31q-33 0 -56.5 16t-53.5 50l-350 348q-23 26 -23 51zM717 600q0 29 20 49 l350 348q20 21 33 33t34 22.5t42 10.5q61 0 66 -31q5 -10 2 -26q-5 -11 -13.5 -22.5t-23 -28.5t-19.5 -23l-311 -332l311 -334q6 -7 20 -23t23 -28t13 -22q3 -16 -2 -27q-5 -31 -66 -31q-32 0 -55.5 16t-53.5 50l-350 348q-20 23 -20 51z" />
<glyph unicode="&#xac;" d="M172 666v2q0 35 19.5 55t54.5 20h903q35 0 55.5 -20t20.5 -55v-400q0 -34 -20.5 -52.5t-55.5 -18.5h-4q-34 0 -54 19t-20 52v324h-825q-35 0 -54.5 20t-19.5 54z" />
<glyph unicode="&#xad;" horiz-adv-x="1103" d="M227 666v2q0 35 19.5 55t54.5 20h500q35 0 54 -20t19 -55v-2q0 -34 -19 -54t-54 -20h-500q-35 0 -54.5 20t-19.5 54z" />
<glyph unicode="&#xae;" horiz-adv-x="1372" d="M102 944q0 219 160 353.5t422 134.5q263 0 422.5 -134.5t159.5 -353.5q0 -220 -159 -353.5t-423 -133.5q-263 0 -422.5 133.5t-159.5 353.5zM205 944q0 -177 126.5 -283t352.5 -106t352.5 106t126.5 283q0 176 -127 282.5t-352 106.5t-352 -106.5t-127 -282.5zM461 748 v323q0 23 0.5 35t2.5 32.5t6.5 31.5t12.5 23.5t21 18t31 5.5h127q139 0 205.5 -36t66.5 -128q0 -111 -121 -148l80 -139q17 -37 1.5 -61.5t-49 -22.5t-50.5 35l-93 168h-53q-51 0 -74 2v-139q0 -62 -61 -62q-53 0 -53 62zM575 979q46 -4 84 -4q81 0 117.5 16.5t36.5 55.5 q0 50 -32.5 65.5t-118.5 15.5h-87v-149z" />
<glyph unicode="&#xaf;" horiz-adv-x="1081" d="M217 1348q0 29 19.5 46t54.5 17h493q74 0 74 -63q0 -31 -19.5 -48.5t-54.5 -17.5h-493q-74 0 -74 66z" />
<glyph unicode="&#xb0;" horiz-adv-x="806" d="M100 1184q0 112 84.5 179t214.5 67q132 0 217.5 -67t85.5 -179q0 -111 -86 -178.5t-217 -67.5q-130 0 -214.5 67.5t-84.5 178.5zM221 1184q0 -59 48 -95t130 -36q84 0 132.5 36t48.5 95q0 60 -48.5 95.5t-132.5 35.5q-83 0 -130.5 -35.5t-47.5 -95.5z" />
<glyph unicode="&#xb1;" d="M172 74q-1 26 9.5 42t32 23t41 9t50.5 2h785q31 0 50.5 -2t40.5 -8.5t31.5 -22.5t10.5 -41q1 -26 -9.5 -42t-32 -23t-41 -9t-50.5 -2h-785q-25 0 -40 0.5t-35 4.5t-31 11.5t-19 22t-8 35.5zM172 688q-1 22 9 38t23 23.5t37.5 11.5t39.5 4.5t43 0.5h297v199v7 q0 35 1.5 53.5t7.5 45t22 39t42 12.5q23 1 39 -9.5t24 -24t12 -38.5t4.5 -40.5t0.5 -44.5v-199h297q28 0 43 -0.5t39 -4.5t37 -11.5t23 -22.5t10 -37q1 -22 -9 -37t-23 -22.5t-37.5 -11.5t-39.5 -4.5t-43 -0.5h-297v-200q0 -26 -0.5 -36.5t-2 -34t-6 -35t-12.5 -26 t-21.5 -20.5t-31.5 -6q-23 -1 -39 9.5t-23.5 23.5t-11.5 39t-4.5 41t-0.5 45v200h-297q-26 0 -36 0.5t-33 2t-33.5 6t-24.5 12.5t-19.5 21.5t-5.5 31.5z" />
<glyph unicode="&#xb2;" horiz-adv-x="806" d="M92 705q0 47 39 73l318 250q106 80 106 164q0 57 -41 88t-119 31q-57 0 -96.5 -20t-55.5 -43.5t-34 -43.5t-37 -20q-29 0 -49.5 17.5t-20.5 41.5q0 71 88.5 130t210.5 59q140 0 220.5 -61.5t80.5 -176.5q0 -72 -36.5 -129.5t-110.5 -112.5l-242 -178h330q72 0 72 -65 q0 -58 -72 -58h-487q-30 0 -47 14.5t-17 39.5z" />
<glyph unicode="&#xb3;" horiz-adv-x="808" d="M82 793q2 15 14.5 30t28.5 15q14 0 109 -37t155 -37q85 0 133.5 26t48.5 78q0 63 -44 90t-140 27h-53q-31 0 -47.5 16.5t-16.5 45.5q0 21 16.5 34t47.5 13h51q89 0 130.5 30.5t41.5 81.5q0 50 -42.5 80.5t-125.5 30.5q-51 0 -86.5 -12.5t-50 -28t-36 -40.5t-38.5 -38 q-15 -9 -35 -6q-22 3 -35.5 17.5t-13.5 37.5q0 71 88 128t211 57q143 0 224 -59t81 -159q0 -57 -31.5 -100t-91.5 -63q140 -50 140 -185q0 -104 -91 -161.5t-233 -57.5q-84 0 -174.5 28t-118.5 75q-19 22 -16 43z" />
<glyph unicode="&#xb4;" horiz-adv-x="1081" d="M373 1233q0 20 14 37l168 215q31 47 84 47q28 0 48 -15.5t20 -39.5q0 -15 -17 -39l-186 -219q-33 -39 -72 -39q-25 0 -42 15t-17 38z" />
<glyph unicode="&#xb6;" horiz-adv-x="1880" d="M139 948q0 457 637 457h774q34 0 54 -20t20 -54v-1462q0 -35 -20 -54.5t-54 -19.5h-10q-34 0 -54 19.5t-20 54.5v1382h-321v-1382q0 -35 -20.5 -54.5t-55.5 -19.5h-10q-34 0 -54 19.5t-20 54.5v627q-83 -9 -180 -9q-110 0 -205.5 14t-181.5 48t-147 86t-96.5 132 t-35.5 181zM311 944q0 -84 36 -144t104 -94.5t156.5 -50.5t203.5 -16q95 0 174 6v606h-209q-246 0 -355.5 -70.5t-109.5 -236.5z" />
<glyph unicode="&#xb7;" horiz-adv-x="561" d="M188 649v39q0 35 20 55.5t54 20.5h35q35 0 55.5 -20.5t20.5 -55.5v-39q0 -35 -20.5 -55.5t-55.5 -20.5h-35q-34 0 -54 20.5t-20 55.5z" />
<glyph unicode="&#xb8;" horiz-adv-x="1081" d="M315 -248q0 11 10 24t21 13q15 3 33 0q7 -2 39 -12t56 -15.5t44 -5.5q123 0 123 99q0 20 -14 66t-15 61q20 20 64 20q46 -7 71 -60t25 -112q0 -95 -67 -148t-173 -53q-67 0 -131 20t-84 58q-10 22 -2 45z" />
<glyph unicode="&#xb9;" horiz-adv-x="720" d="M106 1280q0 39 46 63l163 72q41 17 76 17q72 0 72 -76v-633q0 -34 -20 -53t-54 -19q-67 0 -67 72v563l-134 -59q-15 -6 -30 -6q-24 0 -38 16t-14 43z" />
<glyph unicode="&#xba;" horiz-adv-x="935" d="M72 1047q0 188 104 286.5t283 98.5t282 -99t103 -289q0 -182 -104.5 -282t-280.5 -100q-179 0 -283 97.5t-104 287.5zM213 1047q0 -142 63.5 -204.5t182.5 -62.5q241 0 241 264q0 269 -241 269q-246 0 -246 -266z" />
<glyph unicode="&#xbb;" horiz-adv-x="1447" d="M180 160q-4 14 2 28q3 10 12 23t25 31t21 24l311 334l-311 332q-5 6 -19.5 23t-23 28.5t-13.5 22.5q-3 16 2 26q5 31 66 31q22 0 42.5 -10.5t31.5 -20.5t34 -35l351 -348q22 -19 22 -49q0 -29 -22 -51l-351 -348q-20 -21 -32.5 -32.5t-33.5 -22.5t-42 -11q-16 0 -25 0.5 t-20.5 2.5t-18 7.5t-8.5 14.5zM760 160q-4 14 2 28q5 19 59 78l309 334l-309 332q-45 49 -57 74q-3 16 2 26q5 31 65 31q22 0 43 -10.5t32 -20.5t36 -35l348 -348q23 -20 23 -49q0 -28 -23 -51l-348 -348q-22 -22 -34.5 -33t-34 -22t-42.5 -11q-22 0 -33.5 1t-23.5 6.5 t-14 17.5z" />
<glyph unicode="&#xbc;" horiz-adv-x="1822" d="M106 1255q0 40 46 64l163 72q39 16 76 16q17 0 30 -5.5t21 -18.5t12.5 -24t6 -32t2 -32.5t0.5 -35.5v-10v-444q0 -31 -2 -53t-8.5 -48t-22.5 -39.5t-41 -13.5q-16 0 -28.5 5.5t-19.5 18t-11 23t-6 31t-2 30.5v32v12v459l-134 -60q-15 -6 -30 -6q-24 0 -38 16t-14 43z M289 37q0 23 20 49l1057 1284q19 25 42 33t60 8q21 0 34.5 -11.5t13.5 -29.5q0 -23 -25 -51l-1055 -1282q-38 -47 -86 -47q-29 0 -45 12.5t-16 34.5zM1034 236q0 18 9.5 38t17.5 30t29 36q52 60 145 172t127 152q80 92 162 92q60 0 77 -24t17 -89v-348h70q55 0 61 -53 q0 -40 -39 -43q0 -23 -22 -23h-70q0 -6 1 -39.5t0 -47t-5.5 -36.5t-15.5 -33t-29 -12q-51 -9 -64 31q-30 62 -30 137h-336q-53 0 -79 12t-26 48zM1198 295h277v313z" />
<glyph unicode="&#xbd;" horiz-adv-x="1890" d="M106 1255q0 40 46 64l163 72q39 16 76 16q17 0 30 -5.5t21 -18.5t12.5 -24t6 -32t2 -32.5t0.5 -35.5v-10v-444q0 -31 -2 -53t-8.5 -48t-22.5 -39.5t-41 -13.5q-16 0 -28.5 5.5t-19.5 18t-11 23t-6 31t-2 30.5v32v12v459l-134 -60q-15 -6 -30 -6q-24 0 -38 16t-14 43z M287 37q0 23 20 49l1055 1284q21 25 43 33t59 8q22 0 34.5 -11t12.5 -30q0 -26 -22 -51l-1057 -1282q-38 -47 -86 -47q-28 0 -43.5 12.5t-15.5 34.5zM1167 43q-4 19 2 37q11 32 74 82l279 217q53 41 78.5 79.5t25.5 84.5q0 114 -158 114q-47 0 -82 -12.5t-53.5 -30.5 t-32 -36t-26.5 -30.5t-29 -12.5q-31 0 -51 16.5t-20 40.5q0 71 87.5 128.5t211.5 57.5q142 0 221.5 -59.5t79.5 -173.5q0 -71 -37.5 -128t-110.5 -114l-242 -180h277q72 0 91 -7q33 -14 34 -57q0 -59 -72 -59h-485q-59 0 -62 43z" />
<glyph unicode="&#xbe;" horiz-adv-x="1890" d="M82 793q2 15 14.5 30t28.5 15q14 0 109 -37t155 -37q85 0 133.5 26t48.5 78q0 63 -44 90t-140 27h-53q-31 0 -47.5 16.5t-16.5 45.5q0 21 16.5 34t47.5 13h51q89 0 130.5 30.5t41.5 81.5q0 49 -42.5 79t-125.5 30q-51 0 -86.5 -12t-50 -27t-36 -40t-38.5 -38 q-15 -9 -35 -6q-22 3 -35.5 17.5t-13.5 37.5q0 71 88 127t211 56q143 0 224 -58.5t81 -157.5q0 -57 -31.5 -100t-91.5 -63q140 -50 140 -185q0 -104 -91 -161.5t-233 -57.5q-84 0 -174.5 28t-118.5 75q-19 22 -16 43zM354 37q0 22 21 49l1059 1284q18 25 40.5 33t59.5 8 q22 0 34.5 -11t12.5 -30q0 -26 -22 -51l-1057 -1282q-38 -47 -88 -47q-28 0 -44 12.5t-16 34.5zM1104 233q0 42 53 107l275 324q77 92 159 92q61 0 79 -24t18 -89v-348h69q57 0 60 -53q3 -40 -37 -43q0 -9 -6.5 -16t-16.5 -7h-69q0 -9 0.5 -28.5t0.5 -32t-1 -30t-4 -29 t-8.5 -23t-15.5 -18t-24 -7.5q-45 -9 -61 31q-29 67 -29 137h-340q-51 0 -76.5 11.5t-25.5 45.5zM1268 295h278v311z" />
<glyph unicode="&#xbf;" horiz-adv-x="1165" d="M106 -29q-2 34 5 84q9 53 31 97t61.5 83t74.5 66t95 68q60 39 89 61t59 55.5t42.5 74t16.5 97.5q13 64 71 64h23q31 0 51 -19t20 -51q0 -73 -17 -131.5t-53 -104.5t-77.5 -80.5t-103.5 -74.5q-49 -31 -73 -47.5t-56.5 -43.5t-47 -49t-25.5 -53.5t-11 -68.5q0 -91 80 -151 t239 -60q54 0 100.5 7.5t79 18.5t61.5 30t46 34t35.5 40t26 38t20.5 37q9 31 41 31l37 -3q30 -1 49.5 -19.5t19.5 -45.5q0 -15 -4 -21q-16 -61 -53.5 -113.5t-98.5 -96t-155 -68.5t-211 -25q-228 0 -355 97.5t-133 242.5zM575 952v41q0 35 20.5 54.5t55.5 19.5h35 q34 0 54 -19.5t20 -54.5v-41q0 -34 -20 -53.5t-54 -19.5h-35q-35 0 -55.5 19.5t-20.5 53.5z" />
<glyph unicode="&#xc0;" horiz-adv-x="1314" d="M39 53q0 22 8 43l488 1243q16 41 51.5 61.5t77.5 20.5q87 0 120 -84l482 -1235q8 -21 8 -43q0 -35 -23.5 -56t-56.5 -21q-27 0 -49.5 15t-32.5 44l-129 336h-655l-125 -328q-11 -31 -36.5 -47t-53.5 -16q-31 0 -52.5 17.5t-21.5 49.5zM381 1815q0 24 20 39.5t48 15.5 q51 0 81 -43l172 -219q13 -20 13 -37q0 -23 -17.5 -38t-42.5 -15q-41 0 -69 38l-189 220q-16 22 -16 39zM385 526h541l-271 709z" />
<glyph unicode="&#xc1;" horiz-adv-x="1314" d="M39 53q0 22 8 43l488 1243q16 41 51.5 61.5t77.5 20.5q87 0 120 -84l482 -1235q8 -21 8 -43q0 -35 -23.5 -56t-56.5 -21q-27 0 -49.5 15t-32.5 44l-129 336h-655l-125 -328q-11 -31 -36.5 -47t-53.5 -16q-31 0 -52.5 17.5t-21.5 49.5zM385 526h541l-271 709zM596 1571 q0 20 14 37l168 215q31 47 84 47q28 0 48 -15.5t20 -39.5q0 -15 -17 -39l-186 -220q-32 -38 -72 -38q-25 0 -42 15t-17 38z" />
<glyph unicode="&#xc2;" horiz-adv-x="1314" d="M39 53q0 22 8 43l488 1243q16 41 51.5 61.5t77.5 20.5q87 0 120 -84l482 -1235q8 -21 8 -43q0 -35 -23.5 -56t-56.5 -21q-27 0 -49.5 15t-32.5 44l-129 336h-655l-125 -328q-11 -31 -36.5 -47t-53.5 -16q-31 0 -52.5 17.5t-21.5 49.5zM383 1559q0 18 14 38l154 205 q44 62 108 62q67 0 111 -62l152 -205q16 -19 16 -38q0 -21 -16.5 -36.5t-38.5 -15.5q-34 0 -66 37l-155 191l-160 -193q-30 -35 -64 -35q-22 0 -38.5 14.5t-16.5 37.5zM385 526h541l-271 709z" />
<glyph unicode="&#xc3;" horiz-adv-x="1314" d="M39 53q0 22 8 43l488 1243q16 41 51.5 61.5t77.5 20.5q87 0 120 -84l482 -1235q8 -21 8 -43q0 -35 -23.5 -56t-56.5 -21q-27 0 -49.5 15t-32.5 44l-129 336h-655l-125 -328q-11 -31 -36.5 -47t-53.5 -16q-31 0 -52.5 17.5t-21.5 49.5zM311 1638q0 56 59.5 102t125.5 46 q60 0 176 -39t147 -39q28 0 50 13t34 29t27.5 29t30.5 13q23 0 43 -16t20 -41q0 -56 -70 -104t-139 -48q-53 0 -162 39t-143 39q-32 0 -57 -19.5t-44 -39t-38 -19.5q-22 0 -41 14.5t-19 40.5zM385 526h541l-271 709z" />
<glyph unicode="&#xc4;" horiz-adv-x="1314" d="M39 53q0 22 8 43l488 1243q16 41 51.5 61.5t77.5 20.5q87 0 120 -84l482 -1235q8 -21 8 -43q0 -35 -23.5 -56t-56.5 -21q-27 0 -49.5 15t-32.5 44l-129 336h-655l-125 -328q-11 -31 -36.5 -47t-53.5 -16q-31 0 -52.5 17.5t-21.5 49.5zM375 1688q0 88 74 88h12 q71 0 71 -90q0 -91 -71 -91h-12q-74 0 -74 93zM385 526h541l-271 709zM786 1688q0 88 74 88h12q74 0 74 -90q0 -91 -74 -91h-12q-74 0 -74 93z" />
<glyph unicode="&#xc5;" horiz-adv-x="1314" d="M39 53q0 22 8 43l488 1243q16 41 51.5 61.5t77.5 20.5q87 0 120 -84l482 -1235q8 -21 8 -43q0 -35 -23.5 -56t-56.5 -21q-27 0 -49.5 15t-32.5 44l-129 336h-655l-125 -328q-11 -31 -36.5 -47t-53.5 -16q-31 0 -52.5 17.5t-21.5 49.5zM385 526h541l-271 709zM432 1686 q0 84 63.5 130t163.5 46q102 0 165 -46t63 -130q0 -83 -63.5 -130t-164.5 -47q-100 0 -163.5 47t-63.5 130zM547 1686q0 -82 112 -82q56 0 85.5 21t29.5 61q0 81 -115 81q-112 0 -112 -81z" />
<glyph unicode="&#xc6;" horiz-adv-x="2109" d="M-66 26q-14 38 15 85l991 1257q27 37 72 37h850q73 0 73 -78t-73 -78h-664v-452h625q73 0 73 -76t-73 -76h-625v-489h696q74 0 74 -78t-76 -78h-788q-34 0 -54 19.5t-20 54.5v307h-670l-278 -352q-37 -47 -85.5 -44t-62.5 41zM473 526h557v707z" />
<glyph unicode="&#xc7;" horiz-adv-x="1447" d="M100 700q0 199 88.5 367t244.5 266.5t345 98.5q214 0 349.5 -83t177.5 -214q17 -55 -13.5 -89t-76 -27t-64.5 54q-34 91 -124.5 147t-248.5 56q-146 0 -262 -76.5t-179 -208t-63 -291.5q0 -161 64 -291t186.5 -206t282.5 -76q72 0 131 6.5t114 23t78.5 25.5t77.5 31 q50 21 82.5 -5.5t25.5 -71.5t-54 -68q-169 -80 -369 -93q43 -77 43 -145q0 -96 -67 -148.5t-175 -52.5q-47 0 -96 10.5t-87 34.5t-38 56q0 23 12.5 43t34.5 20q14 0 72 -18.5t90 -18.5q58 0 89.5 22t31.5 77q0 41 -31 120q-147 6 -273 63.5t-213 153.5t-136.5 227t-49.5 281 z" />
<glyph unicode="&#xc8;" horiz-adv-x="1335" d="M256 74v1257q0 34 19.5 54t54.5 20h757q35 0 54.5 -19.5t19.5 -58.5q0 -38 -20 -58t-54 -20h-665v-452h625q75 0 75 -76t-75 -76h-625v-489h698q74 0 74 -78t-78 -78h-786q-35 0 -54.5 19.5t-19.5 54.5zM489 1815q0 24 20 39.5t48 15.5q52 0 82 -43l172 -219 q12 -18 12 -37q0 -23 -17 -38t-42 -15q-42 0 -70 38l-188 220q-17 24 -17 39z" />
<glyph unicode="&#xc9;" horiz-adv-x="1335" d="M256 74v1257q0 34 19.5 54t54.5 20h757q35 0 54.5 -19.5t19.5 -58.5q0 -38 -20 -58t-54 -20h-665v-452h625q75 0 75 -76t-75 -76h-625v-489h698q74 0 74 -78t-78 -78h-786q-35 0 -54.5 19.5t-19.5 54.5zM571 1571q0 19 15 37l168 215q31 47 84 47q28 0 47.5 -15.5 t19.5 -39.5q0 -17 -16 -39l-187 -220q-32 -38 -71 -38q-25 0 -42.5 15t-17.5 38z" />
<glyph unicode="&#xca;" horiz-adv-x="1335" d="M256 74v1257q0 34 19.5 54t54.5 20h757q35 0 54.5 -19.5t19.5 -58.5q0 -38 -20 -58t-54 -20h-665v-452h625q75 0 75 -76t-75 -76h-625v-489h698q74 0 74 -78t-78 -78h-786q-35 0 -54.5 19.5t-19.5 54.5zM428 1559q0 18 14 38l154 205q44 62 109 62q66 0 110 -62l152 -205 q16 -19 16 -38q0 -21 -16.5 -36.5t-38.5 -15.5q-34 0 -66 37l-155 191l-160 -193q-30 -35 -64 -35q-22 0 -38.5 14.5t-16.5 37.5z" />
<glyph unicode="&#xcb;" horiz-adv-x="1335" d="M256 74v1257q0 34 19.5 54t54.5 20h757q35 0 54.5 -19.5t19.5 -58.5q0 -38 -20 -58t-54 -20h-665v-452h625q75 0 75 -76t-75 -76h-625v-489h698q74 0 74 -78t-78 -78h-786q-35 0 -54.5 19.5t-19.5 54.5zM416 1688q0 44 16.5 66t56.5 22h13q71 0 71 -90q0 -91 -71 -91h-13 q-73 0 -73 93zM827 1688q0 88 74 88h12q74 0 74 -90q0 -91 -74 -91h-12q-74 0 -74 93z" />
<glyph unicode="&#xcc;" horiz-adv-x="677" d="M59 1815q0 24 20 39.5t48 15.5q52 0 82 -43l172 -219q12 -18 12 -37q0 -23 -17 -38t-42 -15q-42 0 -70 38l-188 220q-17 24 -17 39zM256 74v1257q0 34 19.5 54t54.5 20h20q34 0 53 -20t19 -54v-1257q0 -35 -19 -54.5t-53 -19.5h-20q-35 0 -54.5 19.5t-19.5 54.5z" />
<glyph unicode="&#xcd;" horiz-adv-x="677" d="M256 74v1257q0 34 19.5 54t54.5 20h20q34 0 53 -20t19 -54v-1257q0 -35 -19 -54.5t-53 -19.5h-20q-35 0 -54.5 19.5t-19.5 54.5zM287 1571q0 20 14 37l168 215q31 47 84 47q28 0 48 -15.5t20 -39.5q0 -15 -17 -39l-186 -220q-32 -38 -72 -38q-25 0 -42 15t-17 38z" />
<glyph unicode="&#xce;" horiz-adv-x="677" d="M63 1559q0 17 15 38l153 205q44 62 109 62q67 0 111 -62l151 -205q16 -19 16 -38q0 -21 -16.5 -36.5t-38.5 -15.5q-33 0 -65 37l-156 191l-160 -193q-30 -35 -63 -35q-23 0 -39.5 14.5t-16.5 37.5zM256 74v1257q0 34 19.5 54t54.5 20h20q34 0 53 -20t19 -54v-1257 q0 -35 -19 -54.5t-53 -19.5h-20q-35 0 -54.5 19.5t-19.5 54.5z" />
<glyph unicode="&#xcf;" horiz-adv-x="677" d="M55 1688q0 88 74 88h12q72 0 72 -90q0 -91 -72 -91h-12q-74 0 -74 93zM256 74v1257q0 34 19.5 54t54.5 20h20q34 0 53 -20t19 -54v-1257q0 -35 -19 -54.5t-53 -19.5h-20q-35 0 -54.5 19.5t-19.5 54.5zM467 1688q0 88 74 88h12q74 0 74 -90q0 -91 -74 -91h-12 q-74 0 -74 93z" />
<glyph unicode="&#xd0;" horiz-adv-x="1581" d="M43 713q0 34 19.5 53.5t54.5 19.5h139v545q0 34 19.5 54t54.5 20h346q179 0 323 -43t248 -127.5t160.5 -217.5t56.5 -306q0 -178 -57.5 -315t-163.5 -223t-250 -129.5t-321 -43.5h-342q-35 0 -54.5 19.5t-19.5 54.5v565h-139q-35 0 -54.5 19.5t-19.5 54.5zM422 156h235 q113 0 205.5 16.5t174 57t137 103t87 158.5t31.5 220q0 115 -30.5 205.5t-85.5 152.5t-134.5 102.5t-175 59t-209.5 18.5h-235v-463h338q37 0 57.5 -20t20.5 -53q0 -74 -78 -74h-338v-483z" />
<glyph unicode="&#xd1;" horiz-adv-x="1652" d="M256 74v1255q0 43 29 67.5t69 24.5q54 0 82 -39l795 -1095v1044q0 34 20.5 54t55.5 20h16q34 0 54 -20t20 -54v-1251q0 -42 -27.5 -67t-66.5 -25q-56 0 -91 47l-792 1085v-1046q0 -35 -20 -54.5t-54 -19.5h-16q-35 0 -54.5 19.5t-19.5 54.5zM506 1638q0 56 59 102t125 46 q60 0 176.5 -39t147.5 -39q28 0 50 13t33.5 29t27 29t30.5 13q24 0 44 -16t20 -41q0 -56 -70 -104t-139 -48q-53 0 -162 39t-143 39q-32 0 -57 -19.5t-44.5 -39t-38.5 -19.5q-22 0 -40.5 14.5t-18.5 40.5z" />
<glyph unicode="&#xd2;" horiz-adv-x="1669" d="M100 700q0 149 58 284t156 233.5t234.5 156.5t285.5 58q200 0 369.5 -98.5t267.5 -267t98 -366.5q0 -197 -98 -364t-267.5 -265t-369.5 -98q-199 0 -368.5 98t-267.5 265.5t-98 363.5zM274 700q0 -118 44 -224t118.5 -182.5t178.5 -121.5t219 -45q116 0 220 45t179 121.5 t118.5 182.5t43.5 224q0 159 -74 291t-203 208.5t-284 76.5q-154 0 -283 -76.5t-203 -208.5t-74 -291zM590 1815q0 24 19.5 39.5t47.5 15.5q52 0 82 -43l172 -219q13 -20 13 -37q0 -23 -17.5 -38t-42.5 -15q-41 0 -69 38l-189 220q-16 22 -16 39z" />
<glyph unicode="&#xd3;" horiz-adv-x="1669" d="M100 700q0 149 58 284t156 233.5t234.5 156.5t285.5 58q200 0 369.5 -98.5t267.5 -267t98 -366.5q0 -197 -98 -364t-267.5 -265t-369.5 -98q-199 0 -368.5 98t-267.5 265.5t-98 363.5zM274 700q0 -118 44 -224t118.5 -182.5t178.5 -121.5t219 -45q116 0 220 45t179 121.5 t118.5 182.5t43.5 224q0 159 -74 291t-203 208.5t-284 76.5q-154 0 -283 -76.5t-203 -208.5t-74 -291zM762 1571q0 20 14 37l168 215q31 47 84 47q28 0 48 -15.5t20 -39.5q0 -15 -17 -39l-186 -220q-32 -38 -72 -38q-25 0 -42 15t-17 38z" />
<glyph unicode="&#xd4;" horiz-adv-x="1669" d="M100 700q0 149 58 284t156 233.5t234.5 156.5t285.5 58q200 0 369.5 -98.5t267.5 -267t98 -366.5q0 -197 -98 -364t-267.5 -265t-369.5 -98q-199 0 -368.5 98t-267.5 265.5t-98 363.5zM274 700q0 -118 44 -224t118.5 -182.5t178.5 -121.5t219 -45q116 0 220 45t179 121.5 t118.5 182.5t43.5 224q0 159 -74 291t-203 208.5t-284 76.5q-154 0 -283 -76.5t-203 -208.5t-74 -291zM555 1559q0 18 14 38l154 205q44 62 108 62q67 0 111 -62l152 -205q16 -19 16 -38q0 -21 -16.5 -36.5t-38.5 -15.5q-34 0 -66 37l-155 191l-160 -193q-30 -35 -64 -35 q-22 0 -38.5 14.5t-16.5 37.5z" />
<glyph unicode="&#xd5;" horiz-adv-x="1669" d="M100 700q0 149 58 284t156 233.5t234.5 156.5t285.5 58q200 0 369.5 -98.5t267.5 -267t98 -366.5q0 -197 -98 -364t-267.5 -265t-369.5 -98q-199 0 -368.5 98t-267.5 265.5t-98 363.5zM274 700q0 -118 44 -224t118.5 -182.5t178.5 -121.5t219 -45q116 0 220 45t179 121.5 t118.5 182.5t43.5 224q0 159 -74 291t-203 208.5t-284 76.5q-154 0 -283 -76.5t-203 -208.5t-74 -291zM477 1638q0 56 59.5 102t125.5 46q60 0 176 -39t147 -39q28 0 50 13t33.5 29t27 29t30.5 13q24 0 44 -16t20 -41q0 -56 -70 -104t-139 -48q-53 0 -162 39t-143 39 q-32 0 -57 -19.5t-44 -39t-38 -19.5q-22 0 -41 14.5t-19 40.5z" />
<glyph unicode="&#xd6;" horiz-adv-x="1669" d="M100 700q0 149 58 284t156 233.5t234.5 156.5t285.5 58q200 0 369.5 -98.5t267.5 -267t98 -366.5q0 -197 -98 -364t-267.5 -265t-369.5 -98q-199 0 -368.5 98t-267.5 265.5t-98 363.5zM274 700q0 -118 44 -224t118.5 -182.5t178.5 -121.5t219 -45q116 0 220 45t179 121.5 t118.5 182.5t43.5 224q0 159 -74 291t-203 208.5t-284 76.5q-154 0 -283 -76.5t-203 -208.5t-74 -291zM547 1688q0 88 74 88h12q72 0 72 -90q0 -91 -72 -91h-12q-74 0 -74 93zM958 1688q0 88 74 88h12q74 0 74 -90q0 -91 -74 -91h-12q-74 0 -74 93z" />
<glyph unicode="&#xd7;" d="M225 317q0 32 27 56l336 303l-336 307q-27 24 -27 53q0 28 21 49l2 5q25 28 57 28q24 0 49 -22l344 -316l342 316q25 22 50 22q32 0 57 -28l4 -5q18 -18 18 -49q0 -35 -26 -53l-334 -307l334 -303q26 -21 26 -56q0 -30 -18 -51l-4 -4q-26 -26 -57 -26q-23 0 -50 20 l-342 317l-344 -317q-27 -20 -49 -20q-27 0 -57 26l-4 4q-19 25 -19 51z" />
<glyph unicode="&#xd8;" horiz-adv-x="1736" d="M135 700q0 198 97.5 366.5t266 267t367.5 98.5q226 0 418 -129l121 135q19 22 45 22q22 0 41.5 -18t19.5 -39q0 -25 -20 -45l-117 -129q108 -102 168 -238.5t60 -290.5q0 -147 -58 -281.5t-156.5 -232t-235 -155.5t-286.5 -58q-256 0 -463 166l-149 -172q-19 -22 -49 -22 q-22 0 -40 16.5t-18 38.5q0 25 19 47l153 170q-88 98 -136 222.5t-48 260.5zM307 700q0 -199 123 -358l748 840q-140 94 -312 94q-154 0 -282.5 -76.5t-202.5 -208.5t-74 -291zM510 258q157 -131 356 -131q156 0 285 76.5t202.5 208t73.5 288.5q0 117 -42 222.5t-117 183.5z " />
<glyph unicode="&#xd9;" horiz-adv-x="1507" d="M227 516v815q0 34 19.5 54t54.5 20h18q35 0 54.5 -20t19.5 -54v-815q0 -88 17 -155t57 -121.5t113.5 -83.5t177.5 -29q103 0 175 28t111.5 82t56.5 121.5t17 157.5v815q0 34 18.5 54t53.5 20h16q35 0 55.5 -20t20.5 -54v-815q0 -121 -28.5 -217t-88.5 -170.5t-163 -115 t-244 -40.5q-143 0 -248 40.5t-165.5 115t-89 170.5t-28.5 217zM524 1815q0 24 20 39.5t48 15.5q52 0 82 -43l172 -219q12 -18 12 -37q0 -23 -17 -38t-42 -15q-42 0 -70 38l-188 220q-17 24 -17 39z" />
<glyph unicode="&#xda;" horiz-adv-x="1507" d="M227 516v815q0 34 19.5 54t54.5 20h18q35 0 54.5 -20t19.5 -54v-815q0 -88 17 -155t57 -121.5t113.5 -83.5t177.5 -29q103 0 175 28t111.5 82t56.5 121.5t17 157.5v815q0 34 18.5 54t53.5 20h16q35 0 55.5 -20t20.5 -54v-815q0 -121 -28.5 -217t-88.5 -170.5t-163 -115 t-244 -40.5q-143 0 -248 40.5t-165.5 115t-89 170.5t-28.5 217zM668 1571q0 20 14 37l168 215q31 47 84 47q28 0 47.5 -15.5t19.5 -39.5q0 -17 -16 -39l-186 -220q-32 -38 -72 -38q-25 0 -42 15t-17 38z" />
<glyph unicode="&#xdb;" horiz-adv-x="1507" d="M227 516v815q0 34 19.5 54t54.5 20h18q35 0 54.5 -20t19.5 -54v-815q0 -88 17 -155t57 -121.5t113.5 -83.5t177.5 -29q103 0 175 28t111.5 82t56.5 121.5t17 157.5v815q0 34 18.5 54t53.5 20h16q35 0 55.5 -20t20.5 -54v-815q0 -121 -28.5 -217t-88.5 -170.5t-163 -115 t-244 -40.5q-143 0 -248 40.5t-165.5 115t-89 170.5t-28.5 217zM477 1559q0 17 15 38l153 205q44 62 109 62q66 0 110 -62l152 -205q16 -19 16 -38q0 -21 -16.5 -36.5t-38.5 -15.5q-34 0 -66 37l-155 191l-160 -193q-30 -35 -64 -35q-22 0 -38.5 14.5t-16.5 37.5z" />
<glyph unicode="&#xdc;" horiz-adv-x="1507" d="M227 516v815q0 34 19.5 54t54.5 20h18q35 0 54.5 -20t19.5 -54v-815q0 -88 17 -155t57 -121.5t113.5 -83.5t177.5 -29q103 0 175 28t111.5 82t56.5 121.5t17 157.5v815q0 34 18.5 54t53.5 20h16q35 0 55.5 -20t20.5 -54v-815q0 -121 -28.5 -217t-88.5 -170.5t-163 -115 t-244 -40.5q-143 0 -248 40.5t-165.5 115t-89 170.5t-28.5 217zM469 1688q0 88 74 88h12q72 0 72 -90q0 -91 -72 -91h-12q-74 0 -74 93zM881 1688q0 44 16.5 66t56.5 22h13q73 0 73 -90q0 -91 -73 -91h-13q-73 0 -73 93z" />
<glyph unicode="&#xdd;" horiz-adv-x="1282" d="M82 1354q0 32 23.5 54t54.5 22q43 0 73 -46l408 -665l408 663q27 45 73 45q32 0 55 -20t23 -51q0 -23 -14 -45l-463 -756v-481q0 -35 -19.5 -54.5t-54.5 -19.5h-18q-35 0 -54.5 19.5t-19.5 54.5v481l-461 752q-14 22 -14 47zM559 1571q0 20 14 37l168 215q31 47 84 47 q28 0 48 -15.5t20 -39.5q0 -17 -16 -39l-187 -220q-32 -38 -72 -38q-25 0 -42 15t-17 38z" />
<glyph unicode="&#xde;" horiz-adv-x="1372" d="M256 74v1257q0 34 19.5 54t54.5 20h20q34 0 54 -20t20 -54v-157h242q275 0 428 -114.5t153 -346.5q0 -102 -32 -182.5t-86 -132t-128.5 -85t-154.5 -47.5t-170 -14q-99 0 -252 20v-198q0 -35 -20 -54.5t-54 -19.5h-20q-35 0 -54.5 19.5t-19.5 54.5zM424 426 q126 -20 250 -20q72 0 130 9t109.5 30.5t86.5 56t55 87.5t20 122q0 309 -411 309h-240v-594z" />
<glyph unicode="&#xdf;" horiz-adv-x="1265" d="M219 74v1050q0 187 103 289.5t288 102.5q184 0 293 -93t109 -249q0 -57 -23 -107.5t-56 -87.5t-66 -70.5t-56 -69.5t-23 -71q0 -30 21.5 -59.5t56.5 -55t77 -53t84 -60.5t77 -69.5t56.5 -87t21.5 -107.5q0 -136 -94.5 -219.5t-256.5 -83.5q-117 0 -216 53t-99 111 q0 31 23 54.5t49 23.5q11 0 33.5 -14.5t46.5 -32.5t66 -32.5t87 -14.5q193 0 193 151q0 53 -40.5 98.5t-98 81t-114.5 73.5t-97.5 95t-40.5 128q0 55 22.5 103.5t55 84t64.5 69t54.5 72.5t22.5 80q0 92 -58.5 151.5t-167.5 59.5q-122 0 -176.5 -60t-54.5 -184v-1050 q0 -74 -82 -74h-12q-34 0 -53 19.5t-19 54.5z" />
<glyph unicode="&#xe0;" horiz-adv-x="1165" d="M131 287q0 327 475 327q81 0 199 -12v152q0 192 -223 192q-89 0 -144.5 -34t-103.5 -111q-19 -31 -62 -31q-32 0 -55.5 19.5t-23.5 48.5q0 17 8 30q45 101 145.5 161.5t245.5 60.5q379 0 379 -340v-543q0 -52 15.5 -75t51.5 -23q15 0 39 3t31 3q18 0 35.5 -14.5 t17.5 -41.5q0 -40 -47.5 -63t-105.5 -23q-158 0 -181 162q-64 -66 -162 -114t-210 -48q-145 0 -234.5 83.5t-89.5 230.5zM301 293q0 -176 188 -176q89 0 171 41.5t145 111.5v197q-110 14 -199 14q-146 0 -225.5 -41.5t-79.5 -146.5zM336 1477q0 24 19.5 39.5t47.5 15.5 q52 0 82 -43l172 -219q13 -20 13 -37q0 -23 -17.5 -38t-42.5 -15q-40 0 -69 39l-189 219q-16 22 -16 39z" />
<glyph unicode="&#xe1;" horiz-adv-x="1165" d="M131 287q0 327 475 327q81 0 199 -12v152q0 192 -223 192q-89 0 -144.5 -34t-103.5 -111q-19 -31 -62 -31q-32 0 -55.5 19.5t-23.5 48.5q0 17 8 30q45 101 145.5 161.5t245.5 60.5q379 0 379 -340v-543q0 -52 15.5 -75t51.5 -23q15 0 39 3t31 3q18 0 35.5 -14.5 t17.5 -41.5q0 -40 -47.5 -63t-105.5 -23q-158 0 -181 162q-64 -66 -162 -114t-210 -48q-145 0 -234.5 83.5t-89.5 230.5zM301 293q0 -176 188 -176q89 0 171 41.5t145 111.5v197q-110 14 -199 14q-146 0 -225.5 -41.5t-79.5 -146.5zM530 1233q0 19 15 37l168 215 q31 47 84 47q28 0 47.5 -15.5t19.5 -39.5q0 -17 -16 -39l-186 -219q-33 -39 -72 -39q-25 0 -42.5 15t-17.5 38z" />
<glyph unicode="&#xe2;" horiz-adv-x="1165" d="M131 287q0 327 475 327q81 0 199 -12v152q0 192 -223 192q-89 0 -144.5 -34t-103.5 -111q-19 -31 -62 -31q-32 0 -55.5 19.5t-23.5 48.5q0 17 8 30q45 101 145.5 161.5t245.5 60.5q379 0 379 -340v-543q0 -52 15.5 -75t51.5 -23q15 0 39 3t31 3q18 0 35.5 -14.5 t17.5 -41.5q0 -40 -47.5 -63t-105.5 -23q-158 0 -181 162q-64 -66 -162 -114t-210 -48q-145 0 -234.5 83.5t-89.5 230.5zM301 293q0 -176 188 -176q89 0 171 41.5t145 111.5v197q-110 14 -199 14q-146 0 -225.5 -41.5t-79.5 -146.5zM336 1221q0 19 14 39l154 204 q44 62 108 62q67 0 111 -62l151 -204q17 -20 17 -39q0 -21 -16.5 -36.5t-38.5 -15.5q-34 0 -66 37l-156 191l-159 -193q-30 -35 -64 -35q-22 0 -38.5 14.5t-16.5 37.5z" />
<glyph unicode="&#xe3;" horiz-adv-x="1165" d="M131 287q0 327 475 327q81 0 199 -12v152q0 192 -223 192q-89 0 -144.5 -34t-103.5 -111q-19 -31 -62 -31q-32 0 -55.5 19.5t-23.5 48.5q0 17 8 30q45 101 145.5 161.5t245.5 60.5q379 0 379 -340v-543q0 -52 15.5 -75t51.5 -23q15 0 39 3t31 3q18 0 35.5 -14.5 t17.5 -41.5q0 -40 -47.5 -63t-105.5 -23q-158 0 -181 162q-64 -66 -162 -114t-210 -48q-145 0 -234.5 83.5t-89.5 230.5zM262 1300q0 56 59 102t125 46q60 0 176.5 -39t147.5 -39q28 0 50 13t33.5 29t27 29t30.5 13q24 0 44 -16t20 -41q0 -56 -70 -104t-139 -48 q-53 0 -162 39t-143 39q-32 0 -57 -19.5t-44 -39t-38 -19.5q-22 0 -41 14.5t-19 40.5zM301 293q0 -176 188 -176q89 0 171 41.5t145 111.5v197q-110 14 -199 14q-146 0 -225.5 -41.5t-79.5 -146.5z" />
<glyph unicode="&#xe4;" horiz-adv-x="1165" d="M131 287q0 327 475 327q81 0 199 -12v152q0 192 -223 192q-89 0 -144.5 -34t-103.5 -111q-19 -31 -62 -31q-32 0 -55.5 19.5t-23.5 48.5q0 17 8 30q45 101 145.5 161.5t245.5 60.5q379 0 379 -340v-543q0 -52 15.5 -75t51.5 -23q15 0 39 3t31 3q18 0 35.5 -14.5 t17.5 -41.5q0 -40 -47.5 -63t-105.5 -23q-158 0 -181 162q-64 -66 -162 -114t-210 -48q-145 0 -234.5 83.5t-89.5 230.5zM301 293q0 -176 188 -176q89 0 171 41.5t145 111.5v197q-110 14 -199 14q-146 0 -225.5 -41.5t-79.5 -146.5zM324 1350q0 44 16.5 66t56.5 22h13 q71 0 71 -90q0 -91 -71 -91h-13q-73 0 -73 93zM735 1350q0 88 74 88h12q74 0 74 -90q0 -91 -74 -91h-12q-74 0 -74 93z" />
<glyph unicode="&#xe5;" horiz-adv-x="1165" d="M131 287q0 327 475 327q81 0 199 -12v152q0 192 -223 192q-89 0 -144.5 -34t-103.5 -111q-19 -31 -62 -31q-32 0 -55.5 19.5t-23.5 48.5q0 17 8 30q45 101 145.5 161.5t245.5 60.5q379 0 379 -340v-543q0 -52 15.5 -75t51.5 -23q15 0 39 3t31 3q18 0 35.5 -14.5 t17.5 -41.5q0 -40 -47.5 -63t-105.5 -23q-158 0 -181 162q-64 -66 -162 -114t-210 -48q-145 0 -234.5 83.5t-89.5 230.5zM301 293q0 -176 188 -176q89 0 171 41.5t145 111.5v197q-110 14 -199 14q-146 0 -225.5 -41.5t-79.5 -146.5zM377 1348q0 84 63.5 130t163.5 46 q101 0 164 -46t63 -130q0 -83 -63 -130t-164 -47q-100 0 -163.5 47t-63.5 130zM492 1348q0 -82 112 -82q56 0 85.5 21t29.5 61t-29.5 61t-85.5 21q-112 0 -112 -82z" />
<glyph unicode="&#xe6;" horiz-adv-x="1906" d="M131 287q0 327 475 327q81 0 199 -12v152q0 192 -223 192q-88 0 -145 -34.5t-103 -110.5q-15 -21 -37.5 -28.5t-42.5 -1.5t-37.5 19t-21.5 34t6 44q50 101 148.5 161.5t242.5 60.5q262 0 338 -172q130 172 366 172q115 0 210.5 -36.5t157 -99t95 -143t33.5 -170.5v-55 q0 -35 -19 -54.5t-53 -19.5h-741q6 -172 100.5 -282.5t261.5 -110.5q75 0 141 12.5t101.5 27.5t67 27.5t47.5 12.5q28 0 45.5 -19.5t17.5 -50.5q0 -39 -65 -76t-163.5 -58.5t-195.5 -21.5q-135 0 -243.5 58.5t-178.5 154.5q-97 -100 -216.5 -156.5t-243.5 -56.5 q-145 0 -234.5 83.5t-89.5 230.5zM301 293q0 -176 188 -176q89 0 171 41.5t145 111.5v197q-110 14 -199 14q-146 0 -225.5 -41.5t-79.5 -146.5zM987 645h637q0 141 -89 221t-237 80q-137 0 -212 -82t-99 -219z" />
<glyph unicode="&#xe7;" horiz-adv-x="1216" d="M121 535q0 153 74.5 281t205.5 203t289 75q168 0 288 -85t120 -204q0 -32 -20.5 -53t-51.5 -21q-22 0 -42.5 16t-35.5 40.5t-38.5 53t-49.5 53t-70.5 40.5t-99.5 16q-170 0 -285.5 -121.5t-115.5 -293.5q0 -175 115.5 -296.5t285.5 -121.5q68 0 126 13t90.5 28t67.5 28 t62 13t45.5 -20t18.5 -50q0 -53 -105.5 -98t-234.5 -54q47 -81 47 -147q0 -96 -67 -148.5t-175 -52.5q-48 0 -97.5 10.5t-88.5 34.5t-39 56q0 22 14.5 42.5t36.5 20.5q14 0 72 -18.5t88 -18.5q59 0 91 22t32 77q0 46 -31 118q-225 15 -373.5 176t-148.5 386z" />
<glyph unicode="&#xe8;" horiz-adv-x="1218" d="M119 535q0 117 32 217.5t92.5 176t154 118.5t210.5 43q115 0 210.5 -36.5t157 -99t95 -143t33.5 -170.5v-55q0 -35 -19 -54.5t-53 -19.5h-741q6 -172 100.5 -282.5t261.5 -110.5q75 0 141 12.5t101.5 27.5t67 27.5t47.5 12.5q28 0 45.5 -19.5t17.5 -50.5q0 -39 -65 -76 t-163.5 -58.5t-195.5 -21.5q-156 0 -278 75.5t-187 203.5t-65 283zM299 645h637q0 141 -89 221t-237 80q-137 0 -212 -82t-99 -219zM389 1477q0 24 20 39.5t48 15.5q52 0 82 -43l172 -219q12 -18 12 -37q0 -23 -17 -38t-42 -15q-41 0 -70 39l-188 219q-17 24 -17 39z" />
<glyph unicode="&#xe9;" horiz-adv-x="1218" d="M119 535q0 117 32 217.5t92.5 176t154 118.5t210.5 43q115 0 210.5 -36.5t157 -99t95 -143t33.5 -170.5v-55q0 -35 -19 -54.5t-53 -19.5h-741q6 -172 100.5 -282.5t261.5 -110.5q75 0 141 12.5t101.5 27.5t67 27.5t47.5 12.5q28 0 45.5 -19.5t17.5 -50.5q0 -39 -65 -76 t-163.5 -58.5t-195.5 -21.5q-156 0 -278 75.5t-187 203.5t-65 283zM299 645h637q0 141 -89 221t-237 80q-137 0 -212 -82t-99 -219zM547 1233q0 20 14 37l168 215q31 47 84 47q28 0 48 -15.5t20 -39.5q0 -15 -17 -39l-186 -219q-33 -39 -72 -39q-25 0 -42 15t-17 38z" />
<glyph unicode="&#xea;" horiz-adv-x="1218" d="M119 535q0 117 32 217.5t92.5 176t154 118.5t210.5 43q115 0 210.5 -36.5t157 -99t95 -143t33.5 -170.5v-55q0 -35 -19 -54.5t-53 -19.5h-741q6 -172 100.5 -282.5t261.5 -110.5q75 0 141 12.5t101.5 27.5t67 27.5t47.5 12.5q28 0 45.5 -19.5t17.5 -50.5q0 -39 -65 -76 t-163.5 -58.5t-195.5 -21.5q-156 0 -278 75.5t-187 203.5t-65 283zM299 645h637q0 141 -89 221t-237 80q-137 0 -212 -82t-99 -219zM348 1221q0 19 14 39l154 204q44 62 109 62q66 0 110 -62l152 -204q16 -19 16 -39q0 -21 -16.5 -36.5t-38.5 -15.5q-34 0 -66 37l-155 191 l-160 -193q-30 -35 -64 -35q-22 0 -38.5 14.5t-16.5 37.5z" />
<glyph unicode="&#xeb;" horiz-adv-x="1218" d="M119 535q0 117 32 217.5t92.5 176t154 118.5t210.5 43q115 0 210.5 -36.5t157 -99t95 -143t33.5 -170.5v-55q0 -35 -19 -54.5t-53 -19.5h-741q6 -172 100.5 -282.5t261.5 -110.5q75 0 141 12.5t101.5 27.5t67 27.5t47.5 12.5q28 0 45.5 -19.5t17.5 -50.5q0 -39 -65 -76 t-163.5 -58.5t-195.5 -21.5q-156 0 -278 75.5t-187 203.5t-65 283zM299 645h637q0 141 -89 221t-237 80q-137 0 -212 -82t-99 -219zM332 1350q0 88 74 88h12q71 0 71 -90q0 -91 -71 -91h-12q-74 0 -74 93zM743 1350q0 88 74 88h12q74 0 74 -90q0 -91 -74 -91h-12 q-74 0 -74 93z" />
<glyph unicode="&#xec;" horiz-adv-x="626" d="M119 1477q0 24 19.5 39.5t47.5 15.5q52 0 82 -43l172 -219q13 -20 13 -37q0 -23 -17.5 -38t-42.5 -15q-40 0 -69 39l-189 219q-16 22 -16 39zM229 74v917q0 35 19.5 54.5t54.5 19.5h19q35 0 54 -19.5t19 -54.5v-917q0 -35 -19 -54.5t-54 -19.5h-19q-35 0 -54.5 19.5 t-19.5 54.5z" />
<glyph unicode="&#xed;" horiz-adv-x="626" d="M168 1233q0 20 14 37l168 215q31 47 84 47q28 0 48 -15.5t20 -39.5q0 -15 -17 -39l-186 -219q-33 -39 -72 -39q-25 0 -42 15t-17 38zM229 74v917q0 35 19.5 54.5t54.5 19.5h19q35 0 54 -19.5t19 -54.5v-917q0 -35 -19 -54.5t-54 -19.5h-19q-35 0 -54.5 19.5t-19.5 54.5z " />
<glyph unicode="&#xee;" horiz-adv-x="626" d="M35 1221q0 19 14 39l154 204q44 62 108 62q67 0 111 -62l151 -204q17 -20 17 -39q0 -21 -16.5 -36.5t-38.5 -15.5q-34 0 -66 37l-156 191l-159 -193q-30 -35 -64 -35q-22 0 -38.5 14.5t-16.5 37.5zM229 74v917q0 35 19.5 54.5t54.5 19.5h19q35 0 54 -19.5t19 -54.5v-917 q0 -35 -19 -54.5t-54 -19.5h-19q-35 0 -54.5 19.5t-19.5 54.5z" />
<glyph unicode="&#xef;" horiz-adv-x="626" d="M27 1350q0 44 16.5 66t56.5 22h13q71 0 71 -90q0 -91 -71 -91h-13q-73 0 -73 93zM229 74v917q0 35 19.5 54.5t54.5 19.5h19q35 0 54 -19.5t19 -54.5v-917q0 -35 -19 -54.5t-54 -19.5h-19q-35 0 -54.5 19.5t-19.5 54.5zM438 1350q0 88 74 88h12q74 0 74 -90q0 -91 -74 -91 h-12q-74 0 -74 93z" />
<glyph unicode="&#xf0;" horiz-adv-x="1347" d="M86 535q0 153 75 281t206.5 203t289.5 75q186 0 324 -113q-39 72 -92.5 149t-95.5 119l-293 -49q-16 -4 -21 -4q-55 0 -55 57q0 42 49 54l232 39l-70 61q-8 8 -8 20q-11 24 -8.5 43t16.5 27q11 14 30.5 18t43.5 -6q17 -2 44.5 -21.5t47.5 -38.5t59 -58l225 43q16 4 21 4 q55 0 55 -58q0 -39 -51 -51l-160 -35q126 -158 202.5 -358.5t76.5 -400.5q0 -153 -76 -282.5t-207.5 -204.5t-288.5 -75q-158 0 -289.5 75t-206.5 204.5t-75 282.5zM254 535q0 -175 115.5 -296.5t287.5 -121.5q171 0 287.5 122t116.5 296q0 172 -117 293.5t-287 121.5 q-171 0 -287 -121.5t-116 -293.5z" />
<glyph unicode="&#xf1;" horiz-adv-x="1310" d="M227 74v917q0 74 68 74h18q29 0 48.5 -15.5t19.5 -50.5v-47q63 51 157.5 94.5t194.5 43.5q192 0 284.5 -97.5t92.5 -271.5v-647q0 -35 -20 -54.5t-54 -19.5h-18q-35 0 -54.5 19.5t-19.5 54.5v624q0 120 -66 180t-176 60q-148 0 -309 -117v-747q0 -35 -19.5 -54.5 t-54.5 -19.5h-18q-35 0 -54.5 19.5t-19.5 54.5zM328 1300q0 56 59 102t125 46q60 0 176.5 -39t147.5 -39q28 0 50 13t33.5 29t27 29t30.5 13q23 0 43 -16t20 -41q0 -56 -70 -104t-139 -48q-53 0 -162 39t-143 39q-32 0 -57 -19.5t-44 -39t-38 -19.5q-22 0 -40.5 14.5 t-18.5 40.5z" />
<glyph unicode="&#xf2;" horiz-adv-x="1331" d="M115 535q0 153 70.5 280t197 201t281.5 74q158 0 285 -74t197.5 -201t70.5 -280q0 -154 -70.5 -282.5t-197.5 -204t-285 -75.5q-155 0 -281.5 75.5t-197 204t-70.5 282.5zM283 535q0 -176 106.5 -296t274.5 -120q170 0 277.5 119.5t107.5 296.5q0 174 -107.5 292.5 t-277.5 118.5q-167 0 -274 -119t-107 -292zM416 1477q0 24 19.5 39.5t47.5 15.5q52 0 82 -43l172 -219q13 -20 13 -37q0 -23 -17.5 -38t-42.5 -15q-40 0 -69 39l-189 219q-16 22 -16 39z" />
<glyph unicode="&#xf3;" horiz-adv-x="1331" d="M115 535q0 153 70.5 280t197 201t281.5 74q158 0 285 -74t197.5 -201t70.5 -280q0 -154 -70.5 -282.5t-197.5 -204t-285 -75.5q-155 0 -281.5 75.5t-197 204t-70.5 282.5zM283 535q0 -176 106.5 -296t274.5 -120q170 0 277.5 119.5t107.5 296.5q0 174 -107.5 292.5 t-277.5 118.5q-167 0 -274 -119t-107 -292zM592 1233q0 20 14 37l168 215q31 47 84 47q28 0 48 -15.5t20 -39.5q0 -15 -17 -39l-186 -219q-33 -39 -72 -39q-25 0 -42 15t-17 38z" />
<glyph unicode="&#xf4;" horiz-adv-x="1331" d="M115 535q0 153 70.5 280t197 201t281.5 74q158 0 285 -74t197.5 -201t70.5 -280q0 -154 -70.5 -282.5t-197.5 -204t-285 -75.5q-155 0 -281.5 75.5t-197 204t-70.5 282.5zM283 535q0 -176 106.5 -296t274.5 -120q170 0 277.5 119.5t107.5 296.5q0 174 -107.5 292.5 t-277.5 118.5q-167 0 -274 -119t-107 -292zM387 1221q0 19 14 39l154 204q44 62 109 62q66 0 110 -62l152 -204q16 -19 16 -39q0 -21 -16.5 -36.5t-38.5 -15.5q-34 0 -66 37l-155 191l-160 -193q-30 -35 -64 -35q-22 0 -38.5 14.5t-16.5 37.5z" />
<glyph unicode="&#xf5;" horiz-adv-x="1331" d="M115 535q0 153 70.5 280t197 201t281.5 74q158 0 285 -74t197.5 -201t70.5 -280q0 -154 -70.5 -282.5t-197.5 -204t-285 -75.5q-155 0 -281.5 75.5t-197 204t-70.5 282.5zM283 535q0 -176 106.5 -296t274.5 -120q170 0 277.5 119.5t107.5 296.5q0 174 -107.5 292.5 t-277.5 118.5q-167 0 -274 -119t-107 -292zM309 1300q0 56 59.5 102t125.5 46q60 0 176 -39t147 -39q28 0 50 13t33.5 29t27 29t30.5 13q24 0 44 -16t20 -41q0 -56 -70 -104t-139 -48q-53 0 -162 39t-143 39q-32 0 -57 -19.5t-44 -39t-38 -19.5q-22 0 -41 14.5t-19 40.5z " />
<glyph unicode="&#xf6;" horiz-adv-x="1331" d="M115 535q0 153 70.5 280t197 201t281.5 74q158 0 285 -74t197.5 -201t70.5 -280q0 -154 -70.5 -282.5t-197.5 -204t-285 -75.5q-155 0 -281.5 75.5t-197 204t-70.5 282.5zM283 535q0 -176 106.5 -296t274.5 -120q170 0 277.5 119.5t107.5 296.5q0 174 -107.5 292.5 t-277.5 118.5q-167 0 -274 -119t-107 -292zM379 1350q0 88 74 88h12q72 0 72 -90q0 -91 -72 -91h-12q-74 0 -74 93zM791 1350q0 44 16.5 66t56.5 22h13q73 0 73 -90q0 -91 -73 -91h-13q-73 0 -73 93z" />
<glyph unicode="&#xf7;" d="M268 573v2q0 35 19.5 55.5t54.5 20.5h711q35 0 54 -20t19 -56v-2q0 -34 -19 -53.5t-54 -19.5h-711q-35 0 -54.5 19.5t-19.5 53.5zM608 254v29q0 34 20 53.5t54 19.5h31q35 0 54 -19.5t19 -53.5v-29q0 -36 -19 -56t-54 -20h-31q-34 0 -54 20.5t-20 55.5zM608 870v29 q0 34 20 54t54 20h31q35 0 54 -20t19 -54v-29q0 -35 -19 -55t-54 -20h-31q-34 0 -54 20t-20 55z" />
<glyph unicode="&#xf8;" horiz-adv-x="1380" d="M78 -4q0 25 20 45l144 141q-121 149 -121 353q0 153 74.5 281t205.5 203t289 75q203 0 350 -119l129 127q17 20 41 20q23 0 43.5 -18t20.5 -41q0 -19 -23 -39l-127 -127q138 -161 138 -362q0 -153 -76 -282.5t-207.5 -204.5t-288.5 -75q-213 0 -366 131l-146 -143 q-17 -20 -41 -20q-20 0 -39.5 16.5t-19.5 38.5zM289 535q0 -136 69 -240l572 573q-102 82 -240 82q-170 0 -285.5 -121.5t-115.5 -293.5zM432 209q110 -92 258 -92q171 0 287.5 122t116.5 296q0 141 -84 249z" />
<glyph unicode="&#xf9;" horiz-adv-x="1259" d="M201 389v602q0 35 19.5 54.5t53.5 19.5h19q35 0 54.5 -19.5t19.5 -54.5v-600q0 -131 69.5 -201.5t194.5 -70.5q124 0 193 70.5t69 201.5v600q0 35 19 54.5t53 19.5h20q34 0 54 -19.5t20 -54.5v-602q0 -192 -113 -304t-315 -112q-206 0 -318 111.5t-112 304.5zM403 1477 q0 24 20 39.5t48 15.5q52 0 82 -43l172 -219q12 -18 12 -37q0 -23 -17 -38t-42 -15q-41 0 -70 39l-188 219q-17 24 -17 39z" />
<glyph unicode="&#xfa;" horiz-adv-x="1259" d="M201 389v602q0 35 19.5 54.5t53.5 19.5h19q35 0 54.5 -19.5t19.5 -54.5v-600q0 -131 69.5 -201.5t194.5 -70.5q124 0 193 70.5t69 201.5v600q0 35 19 54.5t53 19.5h20q34 0 54 -19.5t20 -54.5v-602q0 -192 -113 -304t-315 -112q-206 0 -318 111.5t-112 304.5zM549 1233 q0 20 14 37l168 215q31 47 84 47q28 0 48 -15.5t20 -39.5q0 -15 -17 -39l-186 -219q-33 -39 -72 -39q-25 0 -42 15t-17 38z" />
<glyph unicode="&#xfb;" horiz-adv-x="1259" d="M201 389v602q0 35 19.5 54.5t53.5 19.5h19q35 0 54.5 -19.5t19.5 -54.5v-600q0 -131 69.5 -201.5t194.5 -70.5q124 0 193 70.5t69 201.5v600q0 35 19 54.5t53 19.5h20q34 0 54 -19.5t20 -54.5v-602q0 -192 -113 -304t-315 -112q-206 0 -318 111.5t-112 304.5zM350 1221 q0 18 15 39l153 204q44 62 109 62q66 0 110 -62l152 -204q16 -19 16 -39q0 -21 -16.5 -36.5t-38.5 -15.5q-34 0 -66 37l-155 191l-160 -193q-30 -35 -63 -35q-23 0 -39.5 14.5t-16.5 37.5z" />
<glyph unicode="&#xfc;" horiz-adv-x="1259" d="M201 389v602q0 35 19.5 54.5t53.5 19.5h19q35 0 54.5 -19.5t19.5 -54.5v-600q0 -131 69.5 -201.5t194.5 -70.5q124 0 193 70.5t69 201.5v600q0 35 19 54.5t53 19.5h20q34 0 54 -19.5t20 -54.5v-602q0 -192 -113 -304t-315 -112q-206 0 -318 111.5t-112 304.5zM342 1350 q0 88 74 88h12q72 0 72 -90q0 -91 -72 -91h-12q-74 0 -74 93zM754 1350q0 44 16.5 66t56.5 22h13q73 0 73 -90q0 -91 -73 -91h-13q-73 0 -73 93z" />
<glyph unicode="&#xfd;" horiz-adv-x="1146" d="M-39 -391q0 30 19.5 54t48.5 24q11 0 45 -7.5t65 -7.5q53 0 99.5 20.5t81 52t69.5 85t59.5 102.5t57.5 123l-420 918q-10 23 -10 41q0 33 24.5 54.5t57.5 21.5q55 0 82 -58l348 -790l338 790q11 28 34.5 43t49.5 15q32 0 54.5 -21t22.5 -55q0 -27 -10 -47l-411 -938 q-43 -97 -78.5 -165t-84.5 -137t-100 -110.5t-120 -67.5t-150 -26q-172 0 -172 86zM512 1233q0 20 14 37l168 215q31 47 84 47q28 0 48 -15.5t20 -39.5q0 -15 -17 -39l-186 -219q-33 -39 -72 -39q-25 0 -42 15t-17 38z" />
<glyph unicode="&#xfe;" horiz-adv-x="1431" d="M229 -367v1803q0 39 22 59.5t58 20.5q38 0 60 -20.5t22 -59.5v-439q185 97 367 97q155 0 281 -75t196 -203t70 -281t-76 -282.5t-207.5 -204.5t-288.5 -75q-172 0 -338 66v-406q0 -41 -24 -61.5t-60 -20.5q-34 0 -58 20.5t-24 61.5zM395 188q84 -36 158.5 -53.5 t175.5 -17.5q172 0 290 122t118 296q0 173 -110 294t-279 121q-94 0 -196.5 -32.5t-156.5 -65.5v-664z" />
<glyph unicode="&#xff;" horiz-adv-x="1146" d="M-39 -391q0 30 19.5 54t48.5 24q11 0 45 -7.5t65 -7.5q53 0 99.5 20.5t81 52t69.5 85t59.5 102.5t57.5 123l-420 918q-10 23 -10 41q0 33 24.5 54.5t57.5 21.5q55 0 82 -58l348 -790l338 790q11 28 34.5 43t49.5 15q32 0 54.5 -21t22.5 -55q0 -27 -10 -47l-411 -938 q-43 -97 -78.5 -165t-84.5 -137t-100 -110.5t-120 -67.5t-150 -26q-172 0 -172 86zM315 1350q0 88 74 88h12q72 0 72 -90q0 -91 -72 -91h-12q-74 0 -74 93zM727 1350q0 88 74 88h12q74 0 74 -90q0 -91 -74 -91h-12q-74 0 -74 93z" />
<glyph unicode="&#x152;" horiz-adv-x="2506" d="M135 700q0 198 97.5 366.5t266 267t367.5 98.5q170 0 318.5 -75.5t247.5 -205.5v180q0 34 19 54t54 20h758q35 0 54.5 -19.5t19.5 -58.5q0 -38 -20 -58t-54 -20h-666v-452h625q76 0 76 -76t-76 -76h-625v-489h699q74 0 74 -78t-78 -78h-787q-35 0 -54 19.5t-19 54.5v176 q-99 -128 -247.5 -202.5t-318.5 -74.5q-199 0 -367.5 98t-266 265t-97.5 364zM307 700q0 -157 74 -289t202.5 -208t282.5 -76q156 0 285 76.5t202.5 208t73.5 288.5q0 159 -73.5 291t-202.5 208.5t-285 76.5q-154 0 -282.5 -76.5t-202.5 -208.5t-74 -291z" />
<glyph unicode="&#x153;" horiz-adv-x="2213" d="M121 535q0 152 74.5 279.5t205.5 201.5t289 74q152 0 279.5 -70.5t201.5 -192.5q64 122 182.5 192.5t270.5 70.5q119 0 217.5 -36.5t163 -98.5t100 -143t35.5 -171v-55q0 -35 -20 -54.5t-54 -19.5h-800q6 -166 118.5 -280.5t282.5 -114.5q88 0 165.5 20.5t130.5 41 t81 20.5t45.5 -19.5t17.5 -50.5q0 -61 -136.5 -108.5t-307.5 -47.5q-155 0 -284 74.5t-203 200.5q-73 -125 -202.5 -200t-283.5 -75q-118 0 -224 44.5t-181.5 119.5t-119.5 179t-44 219zM289 535q0 -175 115.5 -296.5t285.5 -121.5q110 0 202.5 54t146.5 150t55 214 q0 171 -116.5 291t-287.5 120q-170 0 -285.5 -119.5t-115.5 -291.5zM1272 645h700q0 140 -96 220.5t-252 80.5q-139 0 -232 -83t-120 -218z" />
<glyph unicode="&#x178;" horiz-adv-x="1282" d="M82 1354q0 32 23.5 54t54.5 22q43 0 73 -46l408 -665l408 663q27 45 73 45q32 0 55 -20t23 -51q0 -23 -14 -45l-463 -756v-481q0 -35 -19.5 -54.5t-54.5 -19.5h-18q-35 0 -54.5 19.5t-19.5 54.5v481l-461 752q-14 22 -14 47zM354 1688q0 88 74 88h12q72 0 72 -90 q0 -91 -72 -91h-12q-74 0 -74 93zM766 1688q0 88 74 88h12q74 0 74 -90q0 -91 -74 -91h-12q-74 0 -74 93z" />
<glyph unicode="&#x2c6;" horiz-adv-x="1081" d="M262 1221q0 19 14 39l154 204q44 62 109 62q66 0 110 -62l152 -204q16 -19 16 -39q0 -21 -16.5 -36.5t-38.5 -15.5q-34 0 -66 37l-155 191l-160 -193q-30 -35 -64 -35q-22 0 -38.5 14.5t-16.5 37.5z" />
<glyph unicode="&#x2dc;" horiz-adv-x="1081" d="M184 1300q0 56 59.5 102t125.5 46q60 0 176 -39t147 -39q28 0 50 13t34 29t27.5 29t30.5 13q23 0 43 -16t20 -41q0 -56 -70 -104t-139 -48q-53 0 -162 39t-143 39q-32 0 -57 -19.5t-44 -39t-38 -19.5q-22 0 -41 14.5t-19 40.5z" />
<glyph unicode="&#x2000;" horiz-adv-x="935" />
<glyph unicode="&#x2001;" horiz-adv-x="1870" />
<glyph unicode="&#x2002;" horiz-adv-x="935" />
<glyph unicode="&#x2003;" horiz-adv-x="1870" />
<glyph unicode="&#x2004;" horiz-adv-x="623" />
<glyph unicode="&#x2005;" horiz-adv-x="467" />
<glyph unicode="&#x2006;" horiz-adv-x="311" />
<glyph unicode="&#x2007;" horiz-adv-x="311" />
<glyph unicode="&#x2008;" horiz-adv-x="233" />
<glyph unicode="&#x2009;" horiz-adv-x="374" />
<glyph unicode="&#x200a;" horiz-adv-x="103" />
<glyph unicode="&#x2010;" horiz-adv-x="1103" d="M227 666v2q0 35 19.5 55t54.5 20h500q35 0 54 -20t19 -55v-2q0 -34 -19 -54t-54 -20h-500q-35 0 -54.5 20t-19.5 54z" />
<glyph unicode="&#x2011;" horiz-adv-x="1103" d="M227 666v2q0 35 19.5 55t54.5 20h500q35 0 54 -20t19 -55v-2q0 -34 -19 -54t-54 -20h-500q-35 0 -54.5 20t-19.5 54z" />
<glyph unicode="&#x2012;" horiz-adv-x="1103" d="M227 666v2q0 35 19.5 55t54.5 20h500q35 0 54 -20t19 -55v-2q0 -34 -19 -54t-54 -20h-500q-35 0 -54.5 20t-19.5 54z" />
<glyph unicode="&#x2013;" horiz-adv-x="1497" d="M227 666v2q0 35 19.5 55t54.5 20h893q35 0 54.5 -20t19.5 -55v-2q0 -34 -19.5 -54t-54.5 -20h-893q-35 0 -54.5 20t-19.5 54z" />
<glyph unicode="&#x2014;" horiz-adv-x="2560" d="M227 666v2q0 35 19.5 55t54.5 20h1958q34 0 54 -20t20 -55v-2q0 -34 -20 -54t-54 -20h-1958q-35 0 -54.5 20t-19.5 54z" />
<glyph unicode="&#x2018;" horiz-adv-x="557" d="M133 991q0 16 10 39l148 348q20 49 71 49q25 0 42.5 -15t17.5 -40q0 -8 -4 -24l-127 -355q-22 -65 -88 -65q-29 0 -49.5 17t-20.5 46z" />
<glyph unicode="&#x2019;" horiz-adv-x="557" d="M133 973q0 16 4 24l129 355q11 32 34.5 48.5t51.5 16.5q29 0 49.5 -17t20.5 -46q0 -16 -10 -39l-148 -348q-20 -49 -71 -49q-25 0 -42.5 15t-17.5 40z" />
<glyph unicode="&#x201a;" horiz-adv-x="557" d="M133 -293q0 17 4 25l129 354q12 32 35 49t51 17q29 0 49.5 -17t20.5 -47q0 -16 -10 -39l-148 -346q-20 -49 -71 -49q-24 0 -42 14.5t-18 38.5z" />
<glyph unicode="&#x201c;" horiz-adv-x="862" d="M133 991q0 16 10 39l148 348q20 49 71 49q25 0 42.5 -15t17.5 -40q0 -8 -4 -24l-127 -355q-22 -65 -88 -65q-29 0 -49.5 17t-20.5 46zM440 989q0 15 11 41l147 348q20 49 70 49q25 0 43 -15.5t18 -39.5q0 -8 -4 -24l-129 -355q-11 -33 -35 -49t-51 -16q-29 0 -49.5 16.5 t-20.5 44.5z" />
<glyph unicode="&#x201d;" horiz-adv-x="862" d="M133 973q0 16 4 24l129 355q11 32 35 48.5t51 16.5q29 0 49.5 -17t20.5 -46q0 -16 -10 -39l-148 -348q-20 -49 -71 -49q-25 0 -42.5 15t-17.5 40zM440 973q0 16 4 24l127 355q11 32 35 48.5t51 16.5q29 0 49.5 -17t20.5 -46q0 -20 -8 -39l-148 -348q-20 -49 -71 -49 q-25 0 -42.5 15t-17.5 40z" />
<glyph unicode="&#x201e;" horiz-adv-x="862" d="M133 -293q0 17 4 25l129 354q11 32 35 49t51 17q29 0 49.5 -17t20.5 -47q0 -16 -10 -39l-148 -346q-20 -49 -71 -49q-24 0 -42 14.5t-18 38.5zM440 -293q0 17 4 25l127 354q11 32 35 49t51 17q29 0 49.5 -17t20.5 -47q0 -20 -8 -39l-148 -346q-20 -49 -71 -49 q-24 0 -42 14.5t-18 38.5z" />
<glyph unicode="&#x2022;" horiz-adv-x="980" d="M207 666q0 102 80.5 163.5t201.5 61.5q122 0 203.5 -61.5t81.5 -163.5q0 -101 -82 -163.5t-203 -62.5t-201.5 62.5t-80.5 163.5z" />
<glyph unicode="&#x2026;" horiz-adv-x="1900" d="M188 74v41q0 35 20 54t54 19h35q36 0 56 -19t20 -54v-41q0 -35 -20.5 -54.5t-55.5 -19.5h-35q-34 0 -54 19.5t-20 54.5zM858 74v41q0 35 19.5 54t54.5 19h37q34 0 52.5 -19t18.5 -54v-41q0 -35 -18.5 -54.5t-52.5 -19.5h-37q-35 0 -54.5 19.5t-19.5 54.5zM1526 74v41 q0 35 20 54t56 19h34q34 0 54 -19t20 -54v-41q0 -35 -20 -54.5t-54 -19.5h-34q-35 0 -55.5 19.5t-20.5 54.5z" />
<glyph unicode="&#x202f;" horiz-adv-x="374" />
<glyph unicode="&#x2039;" horiz-adv-x="868" d="M135 600q0 26 23 49l350 348q20 21 32.5 32.5t34 22.5t43.5 11q58 0 66 -31q4 -16 0 -26q-6 -13 -55 -74l-312 -332l312 -334q5 -6 19.5 -23t22.5 -28.5t13 -21.5q4 -10 0 -27q-8 -31 -66 -31q-33 0 -56.5 16t-53.5 50l-350 348q-23 26 -23 51z" />
<glyph unicode="&#x203a;" horiz-adv-x="868" d="M180 160q-4 14 2 28q3 10 12 23t25 31t21 24l311 334l-311 332q-5 6 -19.5 23t-23 28.5t-13.5 22.5q-3 16 2 26q5 31 66 31q22 0 42.5 -10.5t31.5 -20.5t34 -35l351 -348q22 -19 22 -49q0 -29 -22 -51l-351 -348q-20 -21 -32.5 -32.5t-33.5 -22.5t-42 -11q-16 0 -25 0.5 t-20.5 2.5t-18 7.5t-8.5 14.5z" />
<glyph unicode="&#x205f;" horiz-adv-x="467" />
<glyph unicode="&#x20ac;" horiz-adv-x="1501" d="M66 838q0 57 69 57h125q37 274 184.5 404.5t417.5 130.5q222 0 343.5 -84t158.5 -222q4 -20 4 -24q0 -29 -27 -51.5t-69 -22.5q-20 0 -35 14t-27.5 36t-27.5 48.5t-40 53t-60 48.5t-93 36t-133 14q-199 0 -295.5 -89.5t-126.5 -291.5h596q64 0 64 -53q0 -31 -19.5 -49.5 t-54.5 -18.5h-596q0 -14 -1 -40t-1 -40q0 -69 4 -100h528q31 0 47.5 -14t16.5 -37q0 -33 -20 -51.5t-56 -18.5h-496q35 -184 146.5 -265t327.5 -81q122 0 282 41q7 2 35.5 13.5t44.5 11.5q15 0 27 -3q53 -11 53 -75q0 -38 -69.5 -71t-174.5 -52t-211 -19q-280 0 -438 122 t-203 378h-129q-54 0 -63 47q-7 27 4 41q5 13 20.5 23t38.5 10h113q-2 31 -2 98v82h-113q-69 0 -69 64z" />
<glyph unicode="&#x2122;" horiz-adv-x="2187" d="M123 1348q0 26 17 41.5t50 15.5h515q29 0 48 -2t38 -8t28.5 -19.5t9.5 -34.5q0 -27 -18 -42t-51 -15h-215v-465q0 -30 -2 -49.5t-9 -39t-23 -29t-40 -9.5q-29 0 -44.5 19t-19.5 43.5t-4 64.5v465h-167q-58 0 -85.5 12.5t-27.5 51.5zM918 752q0 12 2 20l92 512 q10 63 32.5 95t73.5 32q27 0 50 -16.5t35.5 -34.5t31.5 -51l229 -404l228 404q13 24 23 38.5t25 31t32.5 24.5t37.5 8q37 0 60.5 -20t32 -44.5t14.5 -62.5l92 -516q0 -2 1 -5t1 -5q0 -66 -67 -66q-21 0 -36 9.5t-24 29.5t-13 36.5t-9 43.5l-74 406l-238 -424 q-32 -52 -88 -52t-84 52l-237 424l-74 -406q-5 -27 -9.5 -43.5t-13.5 -36.5t-25 -29.5t-38 -9.5q-30 0 -46.5 16t-16.5 44z" />
<glyph unicode="&#xe000;" horiz-adv-x="1085" d="M0 0v1085h1085v-1085h-1085z" />
<glyph unicode="&#xfb03;" horiz-adv-x="2254" d="M-90 -332q0 35 19.5 58.5t43.5 23.5q19 0 64.5 -10t68.5 -10q158 0 158 137v1059h-141q-74 0 -74 73q0 66 74 66h143v88q0 95 32.5 166.5t90.5 113.5t131 62.5t160 20.5q203 0 203 -80q0 -35 -15.5 -54.5t-40.5 -19.5q-20 0 -68.5 6t-76.5 6q-250 0 -250 -219v-90h629v88 q0 95 33 166.5t91.5 113.5t132 62.5t161.5 20.5q200 0 200 -80q0 -74 -55 -74q-22 0 -70.5 6t-74.5 6q-252 0 -252 -219v-90h723q35 0 54 -19.5t19 -54.5v-917q0 -35 -19 -54.5t-54 -19.5h-21q-34 0 -52.5 19.5t-18.5 54.5v852h-631v-1071q0 -138 -86 -208.5t-219 -70.5 q-32 0 -64.5 3.5t-69 13t-59 29.5t-22.5 48q0 35 20 57.5t43 22.5q20 0 65 -10t68 -10q68 0 113 31t45 106v1059h-629v-1071q0 -138 -87 -208.5t-220 -70.5q-32 0 -64.5 3.5t-69 12.5t-59 29t-22.5 47zM1858 1284v68q0 34 18.5 53.5t52.5 19.5h21q35 0 54 -19.5t19 -53.5 v-68q0 -34 -19 -54t-54 -20h-21q-33 0 -52 20t-19 54z" />
<glyph unicode="&#xfb04;" horiz-adv-x="2373" d="M-90 -328q0 35 19 56.5t42 21.5q20 0 66 -10t69 -10q69 0 113.5 32t44.5 105v1059h-141q-35 0 -54.5 19.5t-19.5 53.5q0 66 74 66h143v88q0 95 32.5 166.5t90.5 113.5t131 62.5t160 20.5q203 0 203 -80q0 -35 -15.5 -54.5t-40.5 -19.5q-20 0 -68.5 6t-76.5 6 q-250 0 -250 -219v-90h629v88q0 95 33 166.5t91.5 113.5t132 62.5t161.5 20.5q200 0 200 -80q0 -74 -55 -74q-22 0 -70.5 6t-74.5 6q-252 0 -252 -219v-90h284q36 0 56 -17t20 -47q0 -18 -6 -31.5t-19.5 -21.5t-25 -13t-34 -6.5t-34 -2t-36.5 -0.5h-205v-994 q0 -186 -73 -271t-232 -85q-34 0 -66.5 4t-68 13t-57 29.5t-21.5 49.5q0 35 19 56.5t42 21.5q19 0 64.5 -10t68.5 -10q69 0 113.5 32t44.5 105v1059h-629v-994q0 -184 -74.5 -270t-232.5 -86q-34 0 -66.5 4t-68.5 13t-58 29.5t-22 49.5zM1855 326v1110q0 38 23.5 59t56.5 21 q35 0 60.5 -21t25.5 -59v-1211q0 -98 125 -98q25 0 67 5t66 3.5t41 -14.5q15 -8 23 -26.5t4 -39.5q-8 -38 -82 -60t-149 -22q-149 0 -205 79t-56 274z" />
</font>
</defs>
</svg>
