<?xml version="1.0" standalone="no"?>
<!DOCTYPE svg PUBLIC "-//W3C//DTD SVG 1.1//EN" "http://www.w3.org/Graphics/SVG/1.1/DTD/svg11.dtd" >
<svg xmlns="http://www.w3.org/2000/svg">
<metadata>Generated by IcoMoon</metadata>
<defs>
<font id="hbicons" horiz-adv-x="1024">
<font-face units-per-em="1024" ascent="960" descent="-64" />
<missing-glyph horiz-adv-x="1024" />
<glyph unicode="&#x20;" horiz-adv-x="512" d="" />
<glyph unicode="&#xe900;" glyph-name="burger-menu" d="M799.072 207.744h-576c-17.664 0-32 14.304-32 32s14.336 32 32 32h576c17.696 0 32-14.304 32-32s-14.336-32-32-32zM799.072 417.184h-576c-17.664 0-32 14.304-32 32s14.336 32 32 32h576c17.696 0 32-14.336 32-32s-14.336-32-32-32zM799.072 626.624h-576c-17.664 0-32 14.336-32 32s14.336 32 32 32h576c17.696 0 32-14.336 32-32s-14.336-32-32-32z" />
<glyph unicode="&#xe901;" glyph-name="cross" d="M557.28 449.184l181.024 180.992c12.512 12.48 12.512 32.736 0 45.248s-32.736 12.512-45.248 0l-181.024-181.024-181.056 181.024c-12.512 12.512-32.736 12.512-45.248 0s-12.512-32.768 0-45.248l181.024-180.992-181.024-181.024c-12.512-12.512-12.512-32.736 0-45.248 6.24-6.24 14.432-9.376 22.624-9.376s16.384 3.136 22.624 9.376l181.056 180.992 181.024-180.992c6.24-6.24 14.432-9.376 22.624-9.376s16.384 3.136 22.624 9.376c12.512 12.512 12.512 32.736 0 45.248l-181.024 181.024z" />
<glyph unicode="&#xe902;" glyph-name="seach" d="M827.648 176.128l-151.104 151.136c88 107.904 81.728 267.616-18.816 368.192-51.968 51.936-121.024 80.544-194.496 80.544s-142.56-28.608-194.496-80.576c-51.936-51.968-80.576-121.024-80.576-194.496s28.64-142.56 80.608-194.496c51.936-51.968 121.024-80.608 194.496-80.608 64.032 0 124.704 21.792 173.696 61.792l151.104-151.136c5.472-5.472 12.672-8.192 19.808-8.192s14.336 2.72 19.808 8.192c10.88 10.976 10.912 28.736-0.032 39.648zM308.352 346.048c-41.376 41.376-64.192 96.384-64.192 154.88s22.784 113.504 64.192 154.912c41.376 41.344 96.384 64.16 154.88 64.16s113.536-22.784 154.912-64.16c85.376-85.408 85.408-224.352 0.064-309.728 0-0.032-0.032-0.032-0.064-0.064s-0.032-0.064-0.064-0.064c-41.376-41.376-96.384-64.128-154.848-64.128-58.496 0-113.504 22.784-154.88 64.192z" />
<glyph unicode="&#xe903;" glyph-name="user" d="M512.032 490.272c-96.448 0-174.912 78.464-174.912 174.88s78.464 174.848 174.912 174.848c96.384 0 174.816-78.432 174.816-174.848s-78.432-174.88-174.816-174.88zM512.032 792c-69.984 0-126.912-56.896-126.912-126.848s56.928-126.88 126.912-126.88c69.952 0 126.816 56.928 126.816 126.88s-56.864 126.848-126.816 126.848zM760.416 56h-496.768c-13.248 0-24 10.752-24 24v86.88c0 150.176 122.176 272.384 272.384 272.384 150.176 0 272.384-122.176 272.384-272.384v-86.88c0-13.28-10.752-24-24-24zM287.648 104h448.736v62.88c0 123.712-100.672 224.384-224.384 224.384-123.744 0-224.384-100.672-224.384-224.384v-62.88z" />
<glyph unicode="&#xe904;" glyph-name="chevron-down" d="M512 342.56l-176.96 176.96 33.92 33.92 143.040-143.008 143.040 143.008 33.92-33.92z" />
<glyph unicode="&#xe905;" glyph-name="chevron-leftt" d="M406.496 448l176.96 176.992 33.952-33.952-143.040-143.040 143.040-143.008-33.952-33.952z" />
<glyph unicode="&#xe906;" glyph-name="chevron-right" d="M617.408 448l-176.96-176.96-33.952 33.952 143.040 143.008-143.040 143.040 33.952 33.952z" />
<glyph unicode="&#xe907;" glyph-name="chevron-up" d="M512 553.44l176.96-176.96-33.92-33.92-143.040 143.008-143.040-143.008-33.92 33.92z" />
<glyph unicode="&#xe908;" glyph-name="bulle" d="M344 103.072c-3.104 0-6.208 0.608-9.184 1.824-8.992 3.712-14.816 12.448-14.816 22.176v131.616h-51.52c-53.952 0-97.824 43.904-97.824 97.856v337.568c0 53.984 43.872 97.888 97.824 97.888h486.944c54.016 0 97.888-43.904 97.888-97.888v-337.6c0-53.952-43.872-97.856-97.888-97.856h-245.92l-148.544-148.576c-4.608-4.576-10.72-7.008-16.96-7.008zM268.48 744c-27.456 0-49.824-22.368-49.824-49.888v-337.6c0-27.456 22.336-49.856 49.824-49.856h75.488c13.248 0 24-10.752 24-24v-97.696l114.624 114.656c4.512 4.512 10.592 7.040 16.96 7.040h255.872c27.488 0 49.888 22.368 49.888 49.856v337.6c0 27.52-22.368 49.888-49.888 49.888h-486.944z" />
<glyph unicode="&#xe909;" glyph-name="facebook" d="M800 96h-576c-35.328 0-64 28.672-64 64v576c0 35.328 28.672 64 64 64h576c35.328 0 64-28.672 64-64v-576c0-35.328-28.672-64-64-64zM689.024 591.424h67.584v102.496l-93.056 0.352c-103.328 0-126.816-76.384-126.816-125.344v-68.352h-59.712v-105.504h59.712v-298.848h125.696v298.848h84.736l11.008 105.504h-95.744v62.144c0 23.264 15.584 28.704 26.592 28.704v0z" />
<glyph unicode="&#xe90a;" glyph-name="faq1" d="M384 166.464c-3.104 0-6.208 0.608-9.184 1.824-8.96 3.712-14.816 12.48-14.816 22.176v101.376h-27.808c-55.264 0-100.192 44.928-100.192 100.192v423.616c0 55.264 44.928 100.192 100.192 100.192h583.616c55.264 0 100.192-44.928 100.192-100.192v-423.616c0-55.264-44.928-100.192-100.192-100.192h-396.512l-118.304-118.336c-4.608-4.608-10.752-7.040-16.992-7.040zM332.192 867.84c-28.768 0-52.192-23.392-52.192-52.192v-423.616c0-28.768 23.392-52.192 52.192-52.192h51.808c13.248 0 24-10.752 24-24v-67.424l84.384 84.416c4.512 4.512 10.624 7.040 16.96 7.040h406.464c28.768 0 52.192 23.392 52.192 52.192v423.584c0 28.768-23.392 52.192-52.192 52.192h-583.616zM612.992 556.544c-15.936 0-28.864 10.304-28.864 24.992 0 26.272 20.672 44.384 50.4 64.224 18.528 12.512 33.216 17.664 33.216 34.912 0 13.344-15.936 22.4-46.528 22.4-23.712 0-37.536-7.328-43.968-16.8-9.056-12.512-19.84-15.52-32.352-15.52-18.080 0-34.912 10.752-34.912 31.872 0 2.592 0.864 5.632 2.112 8.672 14.688 31.424 51.744 52.544 114.24 52.544 71.104 0 111.616-32.768 111.616-79.296 0-30.592-13.376-48.736-36.224-65.536-30.112-21.952-44.384-29.312-50.432-43.104-4.288-11.616-14.176-19.36-26.272-19.36h-12.032zM621.632 529.792c15.936 0 28-12.064 28-28v-11.648c0-16.352-12.064-28-28-28h-13.792c-15.936 0-27.584 11.648-27.584 28v11.648c0 15.936 11.648 28 27.584 28h13.792z" />
<glyph unicode="&#xe90b;" glyph-name="faq2" d="M448-19.84c-5.888 0-11.68 2.144-16.192 6.272l-89.12 81.408h-234.848c-55.040 0-99.84 44.768-99.84 99.808v200.384c0 55.040 44.8 99.808 99.84 99.808h52.16c13.248 0 24-10.752 24-24s-10.752-24-24-24h-52.16c-28.608 0-51.84-23.264-51.84-51.808v-200.384c0-28.576 23.264-51.808 51.84-51.808h244.16c5.984 0 11.776-2.24 16.192-6.272l55.808-50.976v33.248c0 13.248 10.752 24 24 24h84.16c28.608 0 51.84 23.264 51.84 51.808v20.192c0 13.248 10.752 24 24 24s24-10.752 24-24v-20.192c0-55.040-44.768-99.808-99.84-99.808h-60.16v-63.68c0-9.504-5.6-18.112-14.304-21.984-3.104-1.376-6.4-2.016-9.696-2.016z" />
<glyph unicode="&#xe90c;" glyph-name="google-plus" d="M839.424 413.216c-0.256-22.944-0.384-45.696-0.512-68.64-24.128 0.128-48.32 0-72.32 0-0.256 22.944-0.256 45.696-0.512 68.544-24.128 0.192-48.448 0.32-72.576 0.448v68.288c24.128 0.064 48.32 0.192 72.576 0.448 0.128 22.816 0.384 45.728 0.64 68.512h72.192l0.512-68.512c24.192-0.256 48.448-0.384 72.576-0.448v-68.288l-72.576-0.352zM283.488 220.832c-100.48 31.2-173.536 126.752-171.36 226.816-4.96 123.776 109.824 238.080 241.024 239.584 66.848 5.376 131.904-19.136 182.496-59.136-20.608-21.76-42.080-42.688-64.416-62.752-44.544 25.536-98.176 44.992-150.24 27.712-84-22.56-134.848-116.16-103.776-193.728 25.728-80.992 130.112-125.44 211.904-91.392 42.336 14.272 70.272 51.232 82.528 90.848-48.544 0.864-97.088 0.32-145.632 1.632-0.128 27.264-0.256 54.368-0.128 81.632 80.96 0.128 162.016 0.384 243.104-0.32 4.992-66.784-5.504-138.24-51.488-191.872-62.944-76.544-179.36-98.976-274.016-69.024z" />
<glyph unicode="&#xe90d;" glyph-name="phone" d="M544.992 664.16c11.072 7.296 14.144 22.144 6.88 33.248l-67.008 102.016c-7.296 11.072-22.176 14.144-33.248 6.88-11.072-7.296-14.176-22.144-6.88-33.248l67.008-102.016c4.64-7.008 12.256-10.816 20.064-10.816 4.576 0 9.12 1.28 13.184 3.936zM843.68 261.248c-7.264 11.104-22.176 14.176-33.216 6.912-11.104-7.296-14.176-22.144-6.912-33.216l67.008-102.048c4.608-7.040 12.288-10.848 20.096-10.848 4.512 0 9.088 1.28 13.12 3.936 11.104 7.296 14.176 22.144 6.912 33.216l-67.008 102.048zM998.56 213.6l-61.344 93.376c-18.432 28.064-51.52 43.488-85.024 38.912l-115.36-15.168-156.8 238.816 60.896 89.952c19.968 29.504 20.224 67.872 0.672 97.728l-67.040 102.048c-18.752 28.576-50.4 45.664-84.672 45.664-19.744 0-38.944-5.76-55.52-16.64l-81.76-53.728c-35.264-23.136-59.392-58.624-67.968-99.936s-0.512-83.456 22.656-118.688l310.592-473.024c-0.992-0.8-2.144-1.28-3.072-2.24l-57.408-62.336c-4.288-4.672-10.432-6.752-16.672-6.048-6.24 0.832-11.488 4.544-14.4 10.112l-33.28 63.808c-11.52 22.080-34.112 35.904-59.008 36.128-23.296-0.128-47.712-13.28-59.552-35.168l-25.952-47.968c-4.864-9.024-13.376-10.016-16.8-10.016v0c-3.424 0-11.968 0.96-16.832 10.016l-26.624 49.28c-11.744 21.696-34.368 35.168-59.040 35.168 0 0 0 0-0.032 0-24.64 0-47.264-13.44-59.008-35.104l-30.368-56.096c-4.672-8.608-12.736-9.856-16-9.984-3.392-0.384-11.488 0.384-16.864 8.64l-54.112 82.88c-7.232 11.072-22.144 14.24-33.216 6.976-11.104-7.264-14.208-22.112-6.976-33.216l54.112-82.912c13.088-19.968 35.136-31.040 59.072-30.304 23.84 0.992 44.864 14.112 56.192 35.104l30.336 56.064c4.896 8.992 13.376 9.984 16.8 9.984 0 0 0 0 0 0 3.424 0 11.936-0.96 16.832-10.016l26.656-49.28c11.744-21.696 34.368-35.168 59.040-35.168 0 0 0.032 0 0.032 0 24.672 0 47.264 13.504 58.976 35.168l25.952 47.936c4.864 8.992 13.28 10.016 16.832 10.016 4.256-0.288 12.096-0.96 16.96-10.304l33.28-63.776c10.048-19.36 28.992-32.672 50.656-35.52 2.944-0.416 5.92-0.608 8.832-0.608 18.656 0 36.672 7.776 49.472 21.696l51.904 56.416 24.48-37.28c29.312-44.576 78.72-71.168 132.128-71.168 30.784 0 60.672 8.96 86.528 25.92l81.792 53.76c22.624 14.816 38.080 37.6 43.584 64.096 5.472 26.432 0.288 53.472-14.56 76.032zM966.080 147.232c-2.88-13.952-11.008-25.888-22.912-33.696l-81.792-53.76c-18.016-11.808-38.816-18.016-60.192-18.016-37.216 0-71.584 18.496-92 49.536l-361.792 550.976c-16.128 24.544-21.728 53.888-15.744 82.624 5.952 28.736 22.752 53.44 47.296 69.536l81.792 53.728c8.704 5.728 18.816 8.736 29.184 8.736 18.016 0 34.656-8.96 44.544-24l67.008-102.016c8.896-13.6 8.8-31.072-0.288-44.512l-69.888-103.2c-5.44-8-5.504-18.528-0.192-26.624l173.856-264.768c5.024-7.648 14.080-11.872 23.2-10.592l130.336 17.12c15.584 1.92 30.24-4.928 38.656-17.728l61.344-93.376c7.776-11.872 10.496-26.080 7.584-39.968z" />
<glyph unicode="&#xe90e;" glyph-name="search" d="M827.648 176.128l-151.104 151.136c88 107.904 81.728 267.616-18.816 368.192-51.968 51.936-121.024 80.544-194.496 80.544s-142.56-28.608-194.496-80.576c-51.936-51.968-80.576-121.024-80.576-194.496s28.64-142.56 80.608-194.496c51.936-51.968 121.024-80.608 194.496-80.608 64.032 0 124.704 21.792 173.696 61.792l151.104-151.136c5.472-5.472 12.672-8.192 19.808-8.192s14.336 2.72 19.808 8.192c10.88 10.976 10.912 28.736-0.032 39.648zM308.352 346.048c-41.376 41.376-64.192 96.384-64.192 154.88s22.784 113.504 64.192 154.912c41.376 41.344 96.384 64.16 154.88 64.16s113.536-22.784 154.912-64.16c85.376-85.408 85.408-224.352 0.064-309.728 0-0.032-0.032-0.032-0.064-0.064s-0.032-0.064-0.064-0.064c-41.376-41.376-96.384-64.128-154.848-64.128-58.496 0-113.504 22.784-154.88 64.192z" />
<glyph unicode="&#xe90f;" glyph-name="twitter" d="M864.064 669.088c-25.92-11.552-53.792-19.36-82.976-22.88 30.176 18.24 52.768 46.816 63.488 80.448-28.32-16.928-59.36-28.864-91.744-35.296-27.2 29.312-65.408 45.984-105.44 45.92-79.744 0-144.448-65.088-144.448-145.376 0-11.392 1.28-22.496 3.744-33.12-120.064 6.048-226.496 63.936-297.728 151.904-12.832-22.208-19.584-47.424-19.52-73.088 0-50.464 25.472-94.944 64.256-121.024-22.944 0.736-45.408 7.008-65.44 18.176v-1.824c-0.128-68.992 48.288-128.608 115.872-142.56-21.28-5.824-43.584-6.688-65.248-2.496 18.752-59.072 72.992-99.648 134.944-100.96-51.072-40.416-114.272-62.336-179.392-62.208-11.68 0-23.168 0.672-34.464 2.016 65.952-42.688 142.88-65.376 221.44-65.312 265.696 0 411.008 221.536 411.008 413.696 0 6.272-0.16 12.544-0.448 18.784 28.32 20.576 52.704 46.048 72.096 75.2z" />
<glyph unicode="&#xe910;" glyph-name="youtube" d="M888.32 593.888c0 0-7.488 50.272-30.496 72.416-29.216 29.088-61.952 29.216-76.96 30.912-107.456 7.36-268.672 7.36-268.672 7.36h-0.32c0 0-161.216 0-268.672-7.36-15.072-1.728-47.808-1.856-77.024-30.944-23.008-22.112-30.496-72.384-30.496-72.384s-7.68-59.040-7.68-118.080v-55.328c0-59.072 7.68-118.080 7.68-118.080s7.456-50.272 30.496-72.448c29.216-29.024 67.584-28.128 84.672-31.168 61.472-5.6 261.152-7.328 261.152-7.328s161.376 0.224 268.832 7.584c15.040 1.696 47.744 1.856 76.96 30.88 23.008 22.144 30.496 72.448 30.496 72.448s7.712 59.040 7.712 118.112v55.328c0 59.040-7.68 118.080-7.68 118.080zM432.704 353.376l-0.032 204.992 207.488-102.848-207.456-102.144z" />
<glyph unicode="&#xe911;" glyph-name="spark" d="M512.896 844.192c-13.184 1.632-25.216-7.52-26.912-20.672l-18.080-137.952c-1.76-13.152 7.52-25.216 20.672-26.912 1.056-0.128 2.112-0.192 3.168-0.192 11.872 0 22.176 8.8 23.776 20.864l18.048 137.952c1.76 13.12-7.52 25.184-20.672 26.912zM676.128 552.064c5.12 0 10.24 1.632 14.592 4.96l110.336 84.704c10.528 8.064 12.512 23.136 4.448 33.632-8.064 10.528-23.136 12.48-33.664 4.416l-110.336-84.704c-10.496-8.064-12.512-23.136-4.416-33.632 4.736-6.112 11.84-9.376 19.040-9.376zM872.352 376.096l-137.92 18.080c-12.832 1.696-25.184-7.552-26.912-20.672-1.728-13.152 7.52-25.184 20.672-26.912l137.92-18.080c1.056-0.128 2.080-0.192 3.168-0.192 11.872 0 22.176 8.8 23.744 20.864 1.728 13.152-7.52 25.184-20.672 26.912zM643.968 200.576c-8.064 10.528-23.168 12.48-33.664 4.416s-12.512-23.136-4.416-33.664l84.704-110.304c4.704-6.144 11.84-9.376 19.040-9.376 5.12 0 10.24 1.632 14.624 4.96 10.496 8.064 12.48 23.136 4.416 33.664l-84.704 110.304zM220.352 752.192c-8.064 10.464-23.104 12.512-33.664 4.416-10.496-8.064-12.48-23.136-4.416-33.664l84.704-110.304c4.704-6.144 11.84-9.376 19.072-9.376 5.088 0 10.208 1.632 14.592 4.96 10.496 8.064 12.48 23.136 4.416 33.664l-84.704 110.304z" />
<glyph unicode="&#xe912;" glyph-name="adaptable" d="M176.48 14.592c-28.256 0-51.264 27.2-51.264 60.608v251.648c0 7.712 6.272 13.984 13.984 13.984s13.984-6.24 13.984-13.984v-251.648c0-17.696 10.656-32.64 23.296-32.64s23.296 14.944 23.296 32.64v251.648c0 7.712 6.272 13.984 13.984 13.984s13.984-6.24 13.984-13.984v-251.648c0-33.408-23.008-60.608-51.264-60.608zM213.76 387.392c-7.712 0-13.984 6.272-13.984 14.016v419.392c0 17.696-10.656 32.64-23.296 32.64s-23.296-14.944-23.296-32.64v-419.392c0-7.712-6.272-14.016-13.984-14.016s-13.984 6.272-13.984 14.016v419.392c0 33.408 23.008 60.608 51.264 60.608s51.264-27.2 51.264-60.608v-419.392c0-7.712-6.272-14.016-13.984-14.016zM269.664 312.832h-186.4c-28.288 0-51.264 23.008-51.264 51.296 0 28.256 22.976 51.264 51.264 51.264h186.4c28.256 0 51.264-23.008 51.264-51.264 0-28.288-22.976-51.296-51.264-51.296zM83.264 387.392c-12.864 0-23.296-10.432-23.296-23.296s10.432-23.328 23.296-23.328h186.4c12.832 0 23.296 10.432 23.296 23.328 0 12.832-10.464 23.296-23.296 23.296h-186.4zM512 14.592c-28.256 0-51.264 27.2-51.264 60.608v531.264c0 7.712 6.272 13.984 13.984 13.984s13.984-6.24 13.984-13.984v-531.264c0-17.696 10.656-32.64 23.296-32.64s23.296 14.944 23.296 32.64v531.264c0 7.712 6.272 13.984 13.984 13.984s13.984-6.24 13.984-13.984v-531.264c0-33.408-23.008-60.608-51.264-60.608zM549.28 667.040c-7.712 0-13.984 6.272-13.984 14.016v139.744c0 17.696-10.656 32.64-23.296 32.64s-23.296-14.944-23.296-32.64v-139.776c0-7.712-6.272-14.016-13.984-14.016s-13.984 6.272-13.984 14.016v139.776c0 33.408 23.008 60.608 51.264 60.608s51.264-27.2 51.264-60.608v-139.776c0-7.712-6.272-13.984-13.984-13.984zM605.216 592.48h-186.432c-28.256 0-51.264 23.008-51.264 51.296 0 28.256 23.008 51.264 51.264 51.264h186.432c28.256 0 51.264-23.008 51.264-51.264 0-28.32-23.008-51.296-51.264-51.296zM418.784 667.040c-12.864 0-23.296-10.432-23.296-23.296s10.432-23.328 23.296-23.328h186.432c12.832 0 23.296 10.432 23.296 23.328 0 12.832-10.432 23.296-23.296 23.296h-186.432zM847.52 14.592c-28.288 0-51.264 27.2-51.264 60.608v121.152c0 7.712 6.24 14.016 13.984 14.016s13.984-6.272 13.984-14.016v-121.152c0-17.696 10.688-32.64 23.328-32.64s23.328 14.944 23.328 32.64v121.152c0 7.712 6.24 14.016 13.984 14.016s13.984-6.272 13.984-14.016v-121.152c-0.064-33.408-23.040-60.608-51.328-60.608zM884.8 256.928c-7.712 0-13.984 6.24-13.984 13.984v549.888c0 17.696-10.688 32.64-23.328 32.64s-23.328-14.944-23.328-32.64v-549.92c0-7.712-6.24-13.984-13.984-13.984s-13.984 6.24-13.984 13.984v549.92c0 33.408 22.976 60.608 51.264 60.608s51.264-27.2 51.264-60.608v-549.92c0.064-7.68-6.176-13.952-13.92-13.952zM940.736 182.368h-186.4c-28.288 0-51.296 23.008-51.296 51.264 0 28.288 23.008 51.296 51.296 51.296h186.4c28.256 0 51.264-23.008 51.264-51.296 0-28.256-23.008-51.264-51.264-51.264zM754.336 256.928c-12.864 0-23.328-10.464-23.328-23.328s10.432-23.296 23.328-23.296h186.4c12.832 0 23.296 10.432 23.296 23.296s-10.432 23.328-23.296 23.328h-186.4z" />
<glyph unicode="&#xe913;" glyph-name="free" d="M146.72-32c-1.664 0-3.328 0.32-4.96 0.96-4.832 2.016-8 6.752-8 11.968v76.512h-39.040c-28.8 0-52.256 23.424-52.256 52.256v766.048c0 28.832 23.456 52.256 52.256 52.256h834.528c28.8 0 52.288-23.424 52.288-52.256v-766.048c0-28.8-23.456-52.256-52.288-52.256h-687.744l-85.632-85.664c-2.464-2.464-5.76-3.776-9.152-3.776zM94.72 902.080c-14.528 0-26.368-11.84-26.368-26.368v-766.048c0-14.528 11.84-26.336 26.368-26.336h52c7.168 0 12.96-5.824 12.96-12.96v-58.144l67.328 67.328c2.432 2.432 5.728 3.808 9.152 3.808h693.088c14.528 0 26.368 11.808 26.368 26.336v766.048c0 14.528-11.84 26.368-26.368 26.368h-834.528zM635.456 441.216c-51.328 0-93.12 37.248-93.12 83.040v89.408c0 45.792 41.76 83.040 93.12 83.040 35.552 0 67.456-17.6 83.328-45.92l6.912-12.384c3.488-6.24 1.28-14.112-4.96-17.632-6.304-3.488-14.144-1.248-17.632 4.992l-6.912 12.384c-11.104 19.84-34.944 32.64-60.704 32.64-37.056 0-67.232-25.632-67.232-57.12v-89.408c0-31.488 30.144-57.12 67.232-57.12 25.792 0 49.632 12.8 60.704 32.672 3.488 6.24 11.36 8.48 17.632 4.96 6.24-3.488 8.48-11.36 4.96-17.6-15.84-28.352-47.744-45.952-83.328-45.952zM642.016 527.936h-115.584c-7.168 0-12.96 5.792-12.96 12.96 0 7.136 5.792 12.928 12.96 12.928h115.584c7.168 0 12.928-5.792 12.928-12.928 0-7.168-5.792-12.96-12.928-12.96zM642.016 585.696h-115.584c-7.168 0-12.96 5.792-12.96 12.96 0 7.136 5.792 12.928 12.96 12.928h115.584c7.168 0 12.928-5.792 12.928-12.928 0-7.168-5.792-12.96-12.928-12.96zM389.088 439.488c-50.976 0-92.448 41.472-92.448 92.48v72.256c0 50.976 41.472 92.48 92.448 92.48 51.008 0 92.48-41.472 92.48-92.48v-72.256c0-50.976-41.472-92.48-92.48-92.48zM389.088 670.784c-36.704 0-66.56-29.856-66.56-66.56v-72.256c0-36.704 29.856-66.56 66.56-66.56s66.592 29.856 66.592 66.56v72.256c0 36.704-29.856 66.56-66.592 66.56zM512 256.672c-89.344 0-178.72 34.016-246.752 102.016-5.056 5.056-5.056 13.248 0 18.304s13.248 5.056 18.304 0c125.984-125.984 330.912-125.984 456.864 0 5.056 5.056 13.248 5.056 18.304 0s5.056-13.248 0-18.304c-68-68.032-157.376-102.016-246.72-102.016z" />
<glyph unicode="&#xe914;" glyph-name="present" d="M273.44-32c-1.664 0-3.328 0.32-4.928 0.992-4.8 1.952-7.936 6.688-7.936 11.872v111.68h-73.504c-29.6 0-53.696 24.128-53.696 53.76v554.432c0 29.6 24.096 53.696 53.696 53.696h649.888c29.632 0 53.696-24.096 53.696-53.696v-554.432c0-29.632-24.064-53.76-53.696-53.76h-433.6l-120.8-120.8c-2.496-2.432-5.792-3.744-9.12-3.744zM187.072 728.704c-15.424 0-27.968-12.544-27.968-27.968v-554.432c0-15.424 12.544-28 27.968-28h86.368c7.104 0 12.864-5.76 12.864-12.864v-93.504l102.656 102.624c2.4 2.368 5.696 3.744 9.088 3.744h438.88c15.424 0 27.936 12.576 27.936 28v554.432c0 15.424-12.512 27.968-27.936 27.968h-649.856zM694.88 907.168c-13.44 13.44-31.264 20.832-50.208 20.832-24.512 0-46.944-12.32-60.064-32.896l-72.608-114.144-72.64 114.144c-13.12 20.576-35.552 32.896-60.032 32.896-18.976 0-36.8-7.392-50.208-20.832-15.328-15.328-22.752-36.48-20.416-58.016 2.368-21.568 14.208-40.608 33.664-52.864l126.944-63.648c1.824-0.896 3.808-1.344 5.76-1.344s3.936 0.448 5.76 1.344l31.168 15.52 31.136-15.552c1.792-0.896 3.776-1.344 5.728-1.344 2.016 0 3.968 0.448 5.76 1.344l128.128 64.288c18.304 11.616 30.176 30.656 32.512 52.224 2.368 21.568-5.088 42.72-20.384 58.048zM475.104 758.528l-120.064 60.128c-11.648 7.424-19.232 19.552-20.704 33.312-1.504 13.76 3.232 27.232 12.992 37.024 8.576 8.576 19.968 13.312 32.032 13.312 15.616 0 29.952-7.84 38.336-20.992l73.12-114.912-15.712-7.872zM689.696 851.968c-1.504-13.76-9.056-25.888-19.552-32.672l-121.248-60.768-15.68 7.84 73.12 114.912c8.384 13.152 22.752 20.992 38.368 20.992 12.064 0 23.424-4.704 32-13.312 9.792-9.76 14.496-23.264 12.992-36.992zM512 92.576c-7.104 0-12.864 5.824-12.864 12.864v631.072c0 7.104 5.76 12.864 12.864 12.864s12.864-5.76 12.864-12.864v-631.072c0-7.072-5.76-12.864-12.864-12.864zM871.136 394.752h-724.896c-7.104 0-12.864 5.76-12.864 12.864 0 7.072 5.76 12.832 12.864 12.832h724.896c7.136 0 12.864-5.76 12.864-12.832 0-7.104-5.76-12.864-12.864-12.864z" />
<glyph unicode="&#xe915;" glyph-name="calendar" d="M915.36 7.84h-806.72c-42.272 0-76.64 34.368-76.64 76.672v642.304c0 42.24 34.368 76.64 76.64 76.64h806.72c42.24 0 76.64-34.368 76.64-76.64v-642.304c0-42.304-34.368-76.672-76.64-76.672zM108.64 775.488c-26.848 0-48.672-21.856-48.672-48.672v-642.304c0-26.88 21.824-48.704 48.672-48.704h806.72c26.816 0 48.672 21.856 48.672 48.704v642.304c0 26.848-21.856 48.672-48.672 48.672h-806.72zM45.984 595.040h932.032v-27.968h-932.032v27.968zM681.472 690.752c-7.712 0-13.984 6.24-13.984 13.984v169.44c0 7.712 6.24 13.984 13.984 13.984s14.016-6.24 14.016-13.984v-169.472c-0.032-7.712-6.304-13.952-14.016-13.952zM342.56 690.752c-7.712 0-13.984 6.24-13.984 13.984v169.44c0 7.712 6.272 13.984 13.984 13.984s13.984-6.24 13.984-13.984v-169.472c-0.032-7.712-6.272-13.952-13.984-13.952zM687.584 156.96c-7.712 0-13.984 6.24-13.984 13.984v275.136l-55.328-24.32c-6.976-3.104-15.296 0.064-18.432 7.168-3.104 7.072 0.128 15.328 7.2 18.432l74.912 32.928c4.352 1.92 9.312 1.504 13.28-1.088 3.936-2.592 6.304-7.008 6.304-11.712v-296.576c0.032-7.68-6.208-13.952-13.952-13.952zM454.656 337.312c21.952 14.56 36.224 37.984 36.224 64.32 0 44.032-39.904 79.872-88.928 79.872-28.544 0-55.52-12.448-72.192-33.248-4.8-6.016-3.84-14.848 2.176-19.648s14.816-3.84 19.648 2.176c11.392 14.24 30.24 22.752 50.368 22.752 33.6 0 60.96-23.296 60.96-51.904 0-28.672-27.328-51.936-60.96-51.936-7.712 0-13.984-6.24-13.984-13.984s6.24-13.984 13.984-13.984c43.936 0 79.68-30.72 79.68-68.448s-35.744-68.384-79.68-68.384c-35.104 0-65.696 19.328-76.096 48.16-2.624 7.296-10.624 11.040-17.92 8.416-7.264-2.624-11.008-10.624-8.416-17.92 14.4-39.84 55.552-66.624 102.4-66.624 59.36 0 107.616 43.232 107.616 96.352 0.064 36.064-22.112 67.488-54.88 84.032z" />
<glyph unicode="&#xe916;" glyph-name="locker" d="M657.28 10.784h-563.008c-34.336 0-62.272 27.936-62.272 62.24v389.472c0 34.304 27.936 62.24 62.272 62.24h563.008c34.304 0 62.24-27.936 62.24-62.24v-389.472c0-34.304-27.936-62.24-62.24-62.24zM94.272 496.736c-18.88 0-34.24-15.328-34.24-34.24v-389.472c0-18.88 15.36-34.208 34.24-34.208h563.008c18.912 0 34.24 15.328 34.24 34.208v389.472c0 18.912-15.328 34.24-34.24 34.24h-563.008zM615.392 524.064h-28v121.504c0 116.672-94.944 211.616-211.616 211.616-116.704 0-211.648-94.944-211.648-211.616v-121.504h-28v121.504c0 132.128 107.52 239.616 239.648 239.616 132.096 0 239.616-107.488 239.616-239.616v-121.504zM375.776 184.384c-7.744 0-14.016 6.24-14.016 14.016v138.848c0 7.712 6.272 14.016 14.016 14.016s14.016-6.272 14.016-14.016v-138.848c0-7.776-6.272-14.016-14.016-14.016zM876.992 546.176c-6.24 0-11.936 4.224-13.568 10.56-1.888 7.488 2.656 15.136 10.144 16.992l100.96 25.504c7.424 1.888 15.136-2.624 17.024-10.144 1.888-7.456-2.688-15.104-10.144-16.992l-100.96-25.504c-1.12-0.288-2.304-0.416-3.456-0.416zM946.816 298.656c-2.464 0-4.896 0.64-7.2 1.984l-82.528 49.248c-6.656 3.968-8.8 12.576-4.832 19.232 3.936 6.592 12.544 8.768 19.2 4.832l82.56-49.248c6.624-4 8.8-12.576 4.832-19.232-2.624-4.384-7.264-6.816-12.032-6.816zM776.8 693.952c-2.432 0-4.896 0.64-7.136 1.984-6.656 3.968-8.832 12.544-4.864 19.2l49.248 82.592c3.968 6.624 12.608 8.8 19.232 4.832 6.656-3.968 8.8-12.544 4.832-19.2l-49.248-82.592c-2.624-4.384-7.264-6.816-12.064-6.816z" />
<glyph unicode="&#xe917;" glyph-name="umbrella-men" d="M839.616 498.24c-1.6 201.76-167.616 365.728-359.616 372.736v43.84c0 7.264-8.704 13.184-16 13.184s-16-5.92-16-13.184v-43.872c-192-7.008-364.128-173.632-364.128-376.768 0-7.296 5.088-14.176 12.384-14.176h351.744v-258.88c0-38.016 30.080-68.96 68.128-68.96s68.576 30.944 68.576 68.96c0 7.296-6.080 13.184-13.376 13.184s-13.312-5.92-13.312-13.184c0-23.456-15.488-42.592-39.008-42.592-23.488 0-39.008 19.136-39.008 42.592v258.88h342.848c0.096 0 0.224 0 0.352 0 7.296 0 15.008 6.88 15.008 14.176-0.032 1.056 1.664 3.072 1.408 4.064zM626.72 512h-334.4c-13.152 128 51.552 263.424 167.2 333.312 115.872-69.984 180.384-205.312 167.2-333.312zM412.48 845.344c-102.624-77.92-158.464-205.344-146.592-333.344h-156.192c6.336 160 136.224 310.816 302.784 333.344zM653.184 512c11.904 128-43.776 255.392-146.56 333.344 166.528-22.528 296.416-173.344 302.784-333.344h-156.224zM803.232 209.344c-62.176 0-112.768 50.592-112.768 112.8 0 62.144 50.592 112.736 112.768 112.736s112.768-50.592 112.768-112.736c0-62.208-50.592-112.8-112.768-112.8zM803.232 408.544c-47.648 0-86.4-38.752-86.4-86.368 0-47.648 38.752-86.432 86.4-86.432s86.4 38.784 86.4 86.432c0 47.616-38.752 86.368-86.4 86.368zM927.712-32c-7.296 0-13.184 5.92-13.184 13.184v67.072c0 61.376-49.952 111.328-111.328 111.328s-111.328-49.952-111.328-111.328v-67.072c0-7.296-5.92-13.184-13.184-13.184s-13.184 5.92-13.184 13.184v67.072c0 75.936 61.792 137.696 137.696 137.696s137.696-61.76 137.696-137.696v-67.072c0-7.264-5.888-13.184-13.184-13.184z" />
<glyph unicode="&#xe918;" glyph-name="email-box" d="M598.688 241.952h-354.624c-6.368 0-11.52 5.184-11.52 11.552v209.312c0 6.368 5.184 11.52 11.52 11.52h354.624c6.368 0 11.552-5.152 11.552-11.52v-209.312c0-6.368-5.184-11.552-11.552-11.552zM255.616 265.024h331.584v186.24h-331.584v-186.24zM421.408 304.608c-2.624 0-5.248 0.864-7.36 2.624l-177.312 146.688c-4.928 4.096-5.6 11.36-1.536 16.256 4.032 4.928 11.328 5.6 16.224 1.536l169.984-140.608 169.952 140.608c4.896 4.064 12.192 3.36 16.256-1.536s3.36-12.16-1.536-16.256l-177.312-146.688c-2.144-1.76-4.768-2.624-7.36-2.624zM598.688 249.888c-3.2 0-6.368 1.344-8.672 3.904l-101.28 115.488c-4.192 4.768-3.712 12.064 1.088 16.256 4.8 4.224 12.064 3.712 16.256-1.056l101.28-115.456c4.192-4.768 3.712-12.064-1.056-16.288-2.176-1.92-4.896-2.848-7.616-2.848zM244.448 241.952c-2.688 0-5.408 0.96-7.584 2.88-4.8 4.192-5.28 11.488-1.088 16.32l101.28 115.392c4.192 4.8 11.456 5.28 16.288 1.088 4.768-4.192 5.28-11.456 1.056-16.256l-101.28-115.456c-2.272-2.624-5.44-3.968-8.672-3.968zM688.544 186.496h-244.64c-6.368 0-11.552 5.152-11.552 11.488v42.432c0 6.336 5.184 11.52 11.552 11.52s11.52-5.184 11.52-11.52v-30.88h221.568v208.192c0 61.056-49.696 110.752-110.784 110.752-44.672 0-84.768-26.624-102.144-67.808-2.464-5.888-9.248-8.672-15.104-6.144s-8.64 9.248-6.144 15.104c20.992 49.76 69.408 81.92 123.392 81.92 73.824 0 133.888-60.032 133.888-133.856v-219.744c-0.032-6.304-5.216-11.456-11.552-11.456zM980.512 186.496h-291.968c-6.368 0-11.552 5.152-11.552 11.488 0 6.4 5.184 11.552 11.552 11.552h280.416v208.192c0 61.088-49.728 110.752-110.816 110.752h-291.936c-6.368 0-11.52 5.184-11.52 11.52 0 6.368 5.152 11.552 11.52 11.552h291.936c73.856 0 133.888-60.032 133.888-133.856v-219.744c-0.032-6.304-5.184-11.456-11.52-11.456zM791.776 340.096c-21.472 0-38.976 17.472-38.976 38.976 0 21.472 17.504 38.944 38.976 38.944s38.944-17.472 38.944-38.944c0-21.504-17.472-38.976-38.944-38.976zM791.776 394.912c-8.736 0-15.872-7.136-15.872-15.84 0-8.736 7.136-15.904 15.872-15.904 8.768 0 15.872 7.168 15.872 15.904 0 8.704-7.072 15.84-15.872 15.84zM791.776 402.272c-6.336 0-11.488 5.152-11.488 11.488v186.304c0 0.16 0 0.352 0 0.512v97.376c0 3.968 2.016 7.648 5.344 9.76 3.36 2.112 7.552 2.368 11.136 0.672l100.736-48.096c4-1.92 6.528-5.952 6.56-10.336 0.032-4.416-2.464-8.48-6.4-10.432l-94.304-46.304v-179.392c-0.032-6.4-5.184-11.552-11.584-11.552zM803.328 679.68v-60.8l62.72 30.816-62.72 29.984zM224.992 569.888c-5.696 0-10.656 4.224-11.424 10.016l-8.672 66.304c-0.832 6.336 3.616 12.096 9.952 12.928 6.176 0.896 12.096-3.584 12.928-9.92l8.672-66.304c0.832-6.336-3.616-12.096-9.952-12.928-0.48-0.064-0.992-0.096-1.504-0.096zM136.352 518.72c-2.432 0-4.928 0.768-7.008 2.4l-53.024 40.704c-5.056 3.904-6.016 11.136-2.112 16.192 3.872 5.056 11.136 6.016 16.16 2.112l53.024-40.704c5.056-3.872 6.016-11.136 2.112-16.16-2.272-2.976-5.696-4.544-9.152-4.544zM43.52 411.2c-5.696 0-10.656 4.224-11.424 10.016-0.8 6.304 3.616 12.096 9.952 12.928l66.272 8.672c6.272 0.96 12.096-3.584 12.96-9.92 0.8-6.304-3.616-12.128-9.952-12.928l-66.272-8.704c-0.512-0.064-1.024-0.064-1.536-0.064zM120.224 278.208c-2.464 0-4.928 0.768-7.008 2.368-5.056 3.904-6.016 11.136-2.112 16.192l40.736 52.992c3.872 5.088 11.136 6.016 16.16 2.144 5.056-3.904 6.016-11.136 2.112-16.192l-40.736-53.024c-2.24-2.912-5.696-4.48-9.152-4.48zM323.872 543.328c-2.464 0-4.928 0.768-7.040 2.4-5.056 3.904-6.016 11.136-2.112 16.16l40.672 53.024c3.872 5.056 11.136 6.016 16.16 2.112 5.056-3.872 6.016-11.104 2.112-16.16l-40.704-53.056c-2.208-2.912-5.632-4.48-9.088-4.48z" />
<glyph unicode="&#xe919;" glyph-name="lightbulb" d="M577.984 102.272h-131.936c-28.896 0-35.168 7.104-41.92 47.424-10.464 62.816-28 121.632-82.944 220.64-24.128 43.584-33.504 89.472-27.872 136.352 11.936 99.232 92 180.096 190.336 192.32 68.448 8.608 135.904-14.496 184.128-62.752 41.632-41.6 64.512-96.928 64.512-155.776 0-37.856-9.952-74.912-29.44-110.144-55.008-99.072-72.512-157.856-83.008-220.672-6.688-40.288-12.992-47.392-41.856-47.392zM512 676.992c-8.416 0-16.96-0.544-25.408-1.568-87.648-10.912-159.008-83.072-169.664-171.552-5.024-41.824 3.392-82.848 25.056-121.984 56.608-101.952 74.72-162.944 85.632-228.256 0.992-6.016 4.064-24.32 6.848-26.912 1.248-0.64 6.976-0.64 11.584-0.64h131.936c4.576 0 10.304 0 11.616 0.672 2.752 2.528 5.824 20.832 6.752 26.848 10.944 65.312 29.056 126.272 85.632 228.288 17.632 31.68 26.496 64.832 26.496 98.624 0 52.48-20.448 101.824-57.504 138.944-37.12 37.12-86.496 57.536-138.976 57.536zM519.904 202.496c-6.56 0-11.904 5.344-11.904 11.904v128.096l-63.36 63.36c-4.64 4.64-4.64 12.16 0 16.8 4.672 4.672 12.192 4.672 16.832 0l66.848-66.848c2.24-2.208 3.488-5.248 3.488-8.416v-132.992c0-6.56-5.312-11.904-11.904-11.904zM519.904 339.968c-3.168 0-6.336 1.248-8.672 3.776-4.512 4.768-4.224 12.32 0.576 16.8l66.816 62.4c4.8 4.512 12.384 4.224 16.8-0.576 4.512-4.8 4.256-12.352-0.576-16.8l-66.816-62.432c-2.304-2.144-5.216-3.168-8.128-3.168zM501.76 803.968c-6.592 0-11.904 5.344-11.904 11.904v100.224c0 6.56 5.312 11.904 11.904 11.904 6.56 0 11.904-5.344 11.904-11.904v-100.224c0-6.56-5.344-11.904-11.904-11.904zM717.216 745.28c-3.072 0-6.112 1.152-8.448 3.488-4.64 4.672-4.64 12.192 0 16.832l65.44 65.44c4.672 4.672 12.192 4.672 16.8 0 4.672-4.64 4.672-12.16 0-16.832l-65.44-65.44c-2.272-2.336-5.28-3.488-8.352-3.488zM306.784 745.28c-3.040 0-6.080 1.152-8.416 3.488l-65.44 65.44c-4.64 4.672-4.64 12.192 0 16.832 4.672 4.672 12.192 4.672 16.832 0l65.44-65.44c4.672-4.64 4.672-12.16 0-16.832-2.304-2.336-5.344-3.488-8.416-3.488zM559.456-32h-97.088c-22.016 0-39.968 17.92-39.968 39.968v40c0 6.592 5.344 11.904 11.904 11.904h153.216c6.56 0 11.872-5.312 11.872-11.904v-40c0-22.048-17.92-39.968-39.936-39.968zM446.24 36.096v-28.128c0-8.928 7.232-16.192 16.128-16.192h97.088c8.864 0 16.128 7.264 16.128 16.192v28.128h-129.344z" />
<glyph unicode="&#xe91a;" glyph-name="clipboard" d="M815.424-32h-606.816c-34.656 0-62.848 28.224-62.848 62.848v718.208c0 34.656 28.192 62.848 62.848 62.848h107.104c7.872 0 14.24-6.368 14.24-14.24s-6.4-14.24-14.24-14.24h-107.104c-18.976 0-34.368-15.424-34.368-34.368v-718.208c0-18.944 15.392-34.336 34.368-34.336h606.848c18.944 0 34.336 15.392 34.336 34.336v710.816c0 23.040-18.72 41.76-41.76 41.76h-99.744c-7.84 0-14.24 6.4-14.24 14.24s6.4 14.24 14.24 14.24h99.744c38.72 0 70.24-31.488 70.24-70.24v-710.816c0-34.624-28.192-62.848-62.848-62.848zM693.216 727.744h-362.432c-7.872 0-14.24 6.368-14.24 14.24v96.256c0 7.872 6.4 14.24 14.24 14.24h69.376v61.28c0 7.872 6.4 14.24 14.24 14.24h195.168c7.84 0 14.24-6.368 14.24-14.24v-61.28h69.376c7.84 0 14.208-6.368 14.208-14.24v-96.256c0.032-7.872-6.336-14.24-14.176-14.24zM345.056 756.224h333.92v67.776h-69.376c-7.872 0-14.24 6.4-14.24 14.24v61.28h-166.656v-61.28c0-7.872-6.368-14.24-14.24-14.24h-69.376v-67.776zM315.872 527.872c-4.544 0-8.8 2.176-11.488 5.824l-46.24 63.040c-4.672 6.336-3.296 15.264 3.040 19.904s15.264 3.328 19.904-3.040l34.752-47.36 61.184 83.36c4.672 6.368 13.6 7.712 19.904 3.072 6.336-4.672 7.712-13.568 3.072-19.904l-72.64-99.072c-2.688-3.648-6.944-5.824-11.488-5.824zM764.96 567.52h-277.376c-7.872 0-14.24 6.368-14.24 14.24s6.368 14.24 14.24 14.24h277.376c7.84 0 14.24-6.368 14.24-14.24 0.032-7.872-6.4-14.24-14.24-14.24zM315.872 309.952c-4.544 0-8.8 2.144-11.488 5.824l-46.24 63.072c-4.672 6.304-3.296 15.264 3.040 19.872 6.336 4.672 15.296 3.328 19.904-3.072l34.752-47.328 61.152 83.36c4.672 6.368 13.6 7.712 19.904 3.072 6.336-4.672 7.712-13.568 3.072-19.936l-72.64-99.072c-2.656-3.648-6.912-5.792-11.456-5.792zM646.080 349.568h-158.528c-7.872 0-14.24 6.368-14.24 14.24s6.368 14.24 14.24 14.24h158.528c7.84 0 14.24-6.368 14.24-14.24s-6.368-14.24-14.24-14.24zM315.872 111.808c-4.544 0-8.8 2.144-11.488 5.824l-46.24 63.040c-4.672 6.336-3.296 15.264 3.040 19.904 6.336 4.672 15.264 3.296 19.904-3.072l34.752-47.36 61.152 83.36c4.672 6.336 13.6 7.744 19.904 3.072 6.336-4.672 7.712-13.568 3.072-19.904l-72.64-99.040c-2.656-3.648-6.912-5.824-11.456-5.824zM725.344 151.424h-237.76c-7.872 0-14.24 6.368-14.24 14.24 0 7.84 6.368 14.208 14.24 14.208h237.76c7.872 0 14.24-6.368 14.24-14.208s-6.368-14.24-14.24-14.24z" />
<glyph unicode="&#xe91b;" glyph-name="enter" d="M594.528 374.496h-317.472c-13.248 0-24 10.752-24 24s10.752 24 24 24h317.472c88.096 0 159.744 71.648 159.744 159.744v98.208c0 13.248 10.752 24 24 24s24-10.752 24-24v-98.176c0-114.56-93.184-207.776-207.744-207.776zM428.672 191.552c-6.144 0-12.288 2.336-16.96 7.040l-182.976 182.944c-4.512 4.512-7.040 10.592-7.040 16.96s2.528 12.48 7.040 16.96l182.976 182.944c9.376 9.376 24.576 9.376 33.952 0s9.376-24.576 0-33.952l-166.016-165.984 166.016-165.984c9.376-9.376 9.376-24.576 0-33.952-4.704-4.608-10.848-6.976-16.992-6.976z" />
<glyph unicode="&#xe91c;" glyph-name="download" d="M512 296c-13.248 0-24 10.752-24 24v352c0 13.248 10.752 24 24 24s24-10.72 24-24v-352c0-13.248-10.752-24-24-24zM512 296c-6.368 0-12.48 2.528-16.96 7.040l-128 128c-9.376 9.376-9.376 24.576 0 33.952s24.576 9.376 33.952 0l111.040-111.040 111.040 111.040c9.376 9.376 24.576 9.376 33.952 0s9.376-24.576 0-33.952l-128-128c-4.544-4.512-10.656-7.040-17.024-7.040zM640 200h-256c-13.248 0-24 10.752-24 24s10.752 24 24 24h256c13.248 0 24-10.752 24-24s-10.752-24-24-24z" />
<glyph unicode="&#xe91d;" glyph-name="info" d="M512.032 186.72c-144.096 0-261.312 117.216-261.312 261.28s117.216 261.28 261.312 261.28c144.064 0 261.28-117.216 261.28-261.28s-117.216-261.28-261.28-261.28zM512.032 677.28c-126.432 0-229.312-102.848-229.312-229.28s102.88-229.28 229.312-229.28 229.28 102.848 229.28 229.28c0 126.432-102.848 229.28-229.28 229.28zM486.656 564.64v2.848c0 6.016 2.016 11.072 6.016 15.136s8.96 6.080 14.912 6.080h8.896c5.952 0 10.88-2.016 14.848-6.080s5.952-9.12 5.952-15.136v-2.848c0-6.016-1.984-11.008-5.952-14.912s-8.896-5.856-14.848-5.856h-8.896c-5.952 0-10.912 1.952-14.912 5.856s-6.016 8.864-6.016 14.912zM486.656 372v125.152c0 5.952 2.016 10.816 6.016 14.688s8.96 5.792 14.912 5.792h8.896c5.952 0 10.88-1.92 14.848-5.792s5.952-8.736 5.952-14.688v-125.152c0-6.048-1.984-11.040-5.952-14.944s-8.896-5.888-14.848-5.888h-8.896c-5.952 0-10.912 1.984-14.912 5.888s-6.016 8.896-6.016 14.944z" />
<glyph unicode="&#xe91e;" glyph-name="money" d="M257.76 635.712c-6.080 0-11.008 4.928-11.008 10.976l-0.064 43.008c0 6.080 4.928 11.008 11.008 11.008 0 0 0 0 0 0 6.080 0 11.008-4.928 11.008-10.976l0.064-43.008c0-6.048-4.928-11.008-11.008-11.008 0 0 0 0 0 0zM136.256 585.248c-2.816 0-5.632 1.056-7.776 3.2l-30.432 30.368c-4.288 4.288-4.32 11.264-0.032 15.584 4.288 4.288 11.296 4.32 15.584 0l30.432-30.336c4.288-4.32 4.32-11.264 0-15.584-2.112-2.176-4.96-3.232-7.776-3.232zM43.040 463.552c-6.048 0-11.008 4.928-11.008 11.008s4.896 11.008 10.976 11.008l42.976 0.064c0 0 0 0 0 0 6.048 0 11.008-4.928 11.008-11.008s-4.896-11.008-10.976-11.008l-42.976-0.064c0.032 0 0.032 0 0 0zM106.176 311.68c-2.816 0-5.632 1.056-7.776 3.2-4.32 4.32-4.32 11.328 0 15.616l30.368 30.368c4.288 4.32 11.264 4.32 15.552 0.064 4.32-4.32 4.32-11.328 0-15.616l-30.368-30.368c-2.144-2.208-4.96-3.264-7.776-3.264zM898.112 264.384c-6.080 0-11.008 4.864-11.008 11.008v266.048h-582.72c-6.080 0-11.008 4.928-11.008 11.008s4.928 11.008 11.008 11.008h593.728c6.048 0 11.008-4.928 11.008-11.008v-277.056c0-6.144-4.928-11.008-11.008-11.008zM980.96 333.376c-6.080 0-11.040 4.928-11.040 11.008v266.080h-582.688c-6.080 0-11.008 4.928-11.008 11.008s4.928 11.008 11.008 11.008h593.728c6.048 0 11.008-4.928 11.008-11.008v-277.088c0-6.080-4.928-11.008-11.008-11.008zM571.776 274.496h-19.776c-38.816 0-70.368 31.552-70.368 70.368s31.552 70.368 70.368 70.368h19.776c6.080 0 11.040-4.928 11.040-11.008 0-6.112-4.928-11.008-11.040-11.008h-19.776c-26.656 0-48.352-21.76-48.352-48.384 0-26.688 21.696-48.384 48.352-48.384h19.776c6.080 0 11.040-4.928 11.040-11.008s-4.928-10.944-11.040-10.944zM571.776 333.888h-98.944c-6.080 0-11.008 4.864-11.008 11.008 0 6.048 4.928 11.008 11.008 11.008h98.944c6.080 0 11.040-4.928 11.040-11.008 0-6.144-4.928-11.008-11.040-11.008zM829.056 195.328h-593.728c-6.080 0-11.008 4.864-11.008 11.008v277.056c0 6.080 4.928 11.008 11.008 11.008h593.728c6.080 0 11.008-4.928 11.008-11.008v-277.056c0-6.144-4.896-11.008-11.008-11.008zM246.336 217.312h571.712v255.072h-571.712v-255.072zM249.6 388.576c-6.080 0-11.008 4.928-11.008 11.008s4.928 10.976 11.008 10.976c32.128 0 58.272 26.144 58.272 58.272 0 6.080 4.928 11.008 11.008 11.008s11.008-4.928 11.008-11.008c0-44.256-36-80.256-80.288-80.256zM814.016 388.576c-44.288 0-80.288 36-80.288 80.256 0 6.080 4.928 11.008 11.008 11.008s11.008-4.928 11.008-11.008c0-32.128 26.144-58.272 58.272-58.272 6.048 0 11.008-4.928 11.008-11.008s-4.96-10.976-11.008-10.976zM318.88 209.568c-6.080 0-11.008 4.928-11.008 11.008 0 32.128-26.144 58.24-58.272 58.24-6.080 0-11.008 4.928-11.008 11.008 0 6.112 4.928 11.072 11.008 11.072 44.256 0 80.288-36.064 80.288-80.32 0-6.080-4.928-11.008-11.008-11.008zM744.704 209.568c-6.048 0-11.008 4.928-11.008 11.008 0 44.256 36 80.32 80.288 80.32 6.048 0 11.008-4.928 11.008-11.072 0-6.048-4.928-11.008-11.008-11.008-32.128 0-58.272-26.112-58.272-58.24 0-6.080-4.896-11.008-11.008-11.008z" />
<glyph unicode="&#xe91f;" glyph-name="arrow-down" d="M512-24c-260.256 0-472 211.744-472 472s211.744 472 472 472c260.256 0 472-211.744 472-472s-211.744-472-472-472zM512 872c-233.792 0-424-190.208-424-424s190.208-424 424-424c233.792 0 424 190.208 424 424s-190.208 424-424 424zM512 298.272c-13.248 0-24 10.752-24 24v288c0 13.248 10.752 24 24 24s24-10.752 24-24v-288c0-13.248-10.752-24-24-24zM512 264v0c-6.368 0-12.48 2.528-16.96 7.040l-145.12 145.152c-9.376 9.376-9.376 24.576 0 33.952s24.576 9.376 33.952 0l128.128-128.192 128.192 128.16c9.376 9.376 24.576 9.376 33.952 0s9.376-24.576 0-33.952l-145.184-145.12c-4.512-4.512-10.624-7.040-16.96-7.040z" />
<glyph unicode="&#xe920;" glyph-name="log-out" d="M515.456 419.232c-15.904 0-28.8 12.896-28.8 28.8v340.224c0 15.904 12.896 28.8 28.8 28.8s28.8-12.896 28.8-28.8v-340.224c0-15.904-12.896-28.8-28.8-28.8zM512 78.976c-184.544 0-334.656 150.112-334.656 334.656 0 133.024 78.784 253.472 200.736 306.816 14.656 6.336 31.584-0.288 37.952-14.848 6.368-14.592-0.288-31.552-14.848-37.952-100.992-44.16-166.24-143.904-166.24-254.048 0-152.736 124.288-277.024 277.056-277.024s277.056 124.288 277.056 277.024c0 110.208-65.28 209.952-166.304 254.080-14.56 6.368-21.216 23.328-14.88 37.92 6.4 14.592 23.424 21.248 37.952 14.848 122.016-53.28 200.864-173.728 200.864-306.848 0-184.512-150.112-334.624-334.688-334.624z" />
<glyph unicode="&#xe921;" glyph-name="envelope" d="M847.744 166.048h-671.52c-48.672 0-88.224 39.552-88.224 88.256v387.392c0 48.672 39.584 88.256 88.224 88.256h671.52c48.64 0 88.256-39.584 88.256-88.256v-387.392c0-48.672-39.616-88.256-88.256-88.256zM176.224 681.952c-22.176 0-40.224-18.048-40.224-40.256v-387.392c0-22.176 18.048-40.256 40.224-40.256h671.52c22.176 0 40.256 18.048 40.256 40.256v387.392c0 22.176-18.048 40.256-40.256 40.256h-671.52zM510.848 383.744c-5.024 0-10.016 1.568-14.272 4.672l-371.84 274.624c-10.656 7.872-12.896 22.912-5.024 33.6 7.872 10.624 22.88 12.864 33.568 5.024l357.568-264.096 358.464 264.768c10.688 7.904 25.696 5.6 33.568-5.024 7.872-10.656 5.632-25.696-5.056-33.568l-372.704-275.296c-4.256-3.136-9.248-4.704-14.272-4.704zM126.112 194.752c-7.36 0-14.624 3.36-19.328 9.728-7.872 10.656-5.6 25.728 5.056 33.6l317.984 234.816c10.688 7.84 25.696 5.6 33.568-5.056s5.6-25.696-5.056-33.568l-317.984-234.816c-4.288-3.2-9.28-4.704-14.24-4.704zM895.552 194.752c-4.928 0-9.952 1.504-14.24 4.672l-319.072 235.616c-10.624 7.872-12.896 22.912-5.024 33.568 7.904 10.656 22.912 12.896 33.568 5.056l319.072-235.616c10.656-7.872 12.896-22.944 5.024-33.6-4.704-6.336-11.936-9.696-19.328-9.696z" />
<glyph unicode="&#xe922;" glyph-name="plus" d="M512 104c-189.696 0-344 154.304-344 344s154.304 344 344 344 344-154.304 344-344-154.304-344-344-344zM512 744c-163.232 0-296-132.768-296-296s132.768-296 296-296 296 132.768 296 296-132.768 296-296 296zM512 283.68c-13.248 0-24 10.752-24 24v280.64c0 13.248 10.752 24 24 24s24-10.752 24-24v-280.64c0-13.248-10.752-24-24-24zM652.32 424h-280.672c-13.248 0-24 10.752-24 24s10.752 24 24 24h280.672c13.248 0 24-10.752 24-24s-10.752-24-24-24z" />
<glyph unicode="&#xe923;" glyph-name="check-list" d="M394.464 527.648c-13.536 0-25.984 6.208-34.112 17.056l-33.792 45.024c-7.968 10.592-5.824 25.632 4.768 33.6 10.592 7.936 25.632 5.824 33.6-4.768l29.536-39.328 62.816 83.648c8 10.592 23.040 12.704 33.6 4.768 10.624-7.968 12.736-23.008 4.768-33.6l-67.104-89.344c-8.064-10.816-20.512-17.056-34.016-17.056-0.032 0-0.064 0-0.064 0zM394.464 335.68c-13.536 0-25.984 6.176-34.112 17.024l-33.824 44.992c-7.968 10.592-5.824 25.632 4.768 33.6 10.656 7.968 25.664 5.792 33.6-4.768l29.536-39.296 62.816 83.616c8 10.592 23.040 12.704 33.6 4.768 10.624-7.968 12.736-23.008 4.768-33.6l-67.104-89.344c-8.064-10.816-20.512-17.024-34.016-17.024 0 0.032-0.032 0.032-0.032 0.032zM769.696 40h-515.392c-38.752 0-70.304 31.52-70.304 70.304v675.392c0 38.752 31.552 70.304 70.304 70.304h407.040c7.168 0 13.92-3.2 18.464-8.672l154.656-186.496c3.552-4.288 5.536-9.728 5.536-15.328v-535.2c0-38.784-31.52-70.304-70.304-70.304zM254.304 808c-12.288 0-22.304-10.016-22.304-22.304v-675.36c0-12.32 10.016-22.304 22.304-22.304h515.36c12.32 0 22.304 10.016 22.304 22.304v526.496l-141.92 171.168h-395.744zM784 616h-116.8c-37.056 0-67.2 30.144-67.2 67.2v148.8c0 13.248 10.752 24 24 24s24-10.752 24-24v-148.8c0-10.592 8.608-19.2 19.2-19.2h116.8c13.248 0 24-10.752 24-24s-10.752-24-24-24z" />
<glyph unicode="&#xe924;" glyph-name="umbrella" d="M432 24c-57.344 0-104 46.656-104 104v16c0 13.248 10.752 24 24 24s24-10.752 24-24v-16c0-30.88 25.12-56 56-56s56 25.12 56 56v240c0 13.248 10.752 24 24 24s24-10.752 24-24v-240c0-57.344-46.656-104-104-104zM884.992 368.864c-0.16 0-0.448 0-0.64 0h-744.736c-13.248 0-24 10.752-24 24 0 218.56 177.824 396.384 396.384 396.384 216.672 0 393.28-174.72 396.352-390.688 0.448-1.824 0.672-3.712 0.672-5.696-0.032-13.248-10.752-24-24.032-24zM164.448 416.864h695.136c-12.384 180.96-163.552 324.384-347.584 324.384s-335.2-143.424-347.552-324.384zM327.936 371.776c-11.968 0-22.304 8.896-23.808 21.056-19.712 160.64 58.88 315.424 200.192 394.4 11.552 6.432 26.176 2.336 32.672-9.248 6.464-11.552 2.336-26.176-9.248-32.672-124.192-69.408-193.28-205.472-175.936-346.624 1.6-13.152-7.744-25.152-20.896-26.752-0.992-0.096-2.016-0.16-2.976-0.16zM695.712 369.088c-1.024 0-2.048 0.064-3.136 0.192-13.152 1.728-22.4 13.76-20.704 26.912 18.496 142.176-50.432 279.232-175.648 349.152-11.584 6.464-15.712 21.088-9.248 32.672s21.12 15.68 32.672 9.248c142.464-79.552 220.896-235.488 199.872-397.248-1.6-12.096-11.936-20.928-23.808-20.928zM512 741.248c-13.248 0-24 10.752-24 24v82.752c0 13.248 10.752 24 24 24s24-10.752 24-24v-82.752c0-13.248-10.752-24-24-24z" />
<glyph unicode="&#xe925;" glyph-name="present-alt" d="M793.344 24h-562.688c-42.688 0-77.408 34.72-77.408 77.408v405.152c0 42.688 34.72 77.44 77.408 77.44h562.688c42.688 0 77.44-34.72 77.44-77.44v-405.152c0-42.688-34.752-77.408-77.44-77.408zM230.656 536c-16.224 0-29.408-13.216-29.408-29.44v-405.152c0-16.224 13.184-29.408 29.408-29.408h562.688c16.224 0 29.44 13.184 29.44 29.408v405.152c0 16.224-13.216 29.44-29.44 29.44h-562.688zM449.216 24c-13.248 0-24 10.752-24 24v512c0 13.248 10.752 24 24 24s24-10.752 24-24v-512c0-13.248-10.752-24-24-24zM598.56 24c-13.248 0-24 10.752-24 24v512c0 13.248 10.752 24 24 24s24-10.752 24-24v-512c0-13.248-10.752-24-24-24zM433.216 354.656h-229.344c-13.248 0-24 10.752-24 24s10.752 24 24 24h229.344c13.248 0 24-10.752 24-24s-10.752-24-24-24zM433.216 205.344h-229.344c-13.248 0-24 10.752-24 24s10.752 24 24 24h229.344c13.248 0 24-10.752 24-24s-10.752-24-24-24zM817.216 354.656h-197.344c-13.248 0-24 10.752-24 24s10.752 24 24 24h197.344c13.248 0 24-10.752 24-24s-10.752-24-24-24zM817.216 205.344h-197.344c-13.248 0-24 10.752-24 24s10.752 24 24 24h197.344c13.248 0 24-10.752 24-24s-10.752-24-24-24zM507.936 558.496v0c-4.576 0-9.088 0.8-13.44 2.432l-131.296 48.992c-58.784 21.952-96.16 70.944-97.6 127.872-1.408 56.352 32.96 106.592 89.76 131.072 17.408 7.424 38.688 0.416 47.584-15.328l137.312-243.040c6.016-10.656 6.016-23.328-0.16-33.856-6.528-11.2-18.848-18.144-32.16-18.144zM366.24 820.928c-33.952-17.568-53.504-47.648-52.64-81.92 0.928-36.928 26.368-69.184 66.4-84.096l101.44-37.856-115.2 203.872zM526.368 558.496c-13.312 0-25.632 6.944-32.16 18.144-6.112 10.528-6.176 23.2-0.128 33.888l137.312 243.040c8.864 15.776 30.368 22.656 47.52 15.328 56.768-24.512 91.2-74.72 89.792-131.104-1.44-56.928-38.816-105.952-97.6-127.872l-131.232-48.992c-4.416-1.6-8.928-2.432-13.504-2.432zM668.096 820.928l-115.232-203.904 101.408 37.856c40.064 14.944 65.504 47.168 66.432 84.096 0.864 34.272-18.656 64.352-52.608 81.952z" />
<glyph unicode="&#xe926;" glyph-name="cogs" d="M337.792 88.8c-20.192 0-40.928 1.984-61.6 5.824-14.624 1.888-25.344 12.896-27.36 29.312-0.992 9.024-2.304 17.76-3.584 26.496-1.024 6.816-2.016 13.664-2.912 20.512-2.208 0.896-3.904 1.696-4.896 2.176-1.12 0.544-2.208 1.184-3.232 1.92-1.12 1.44-2.816 0.8-6.272-2.432-6.592-6.592-14.176-11.968-21.504-17.152-3.936-2.752-7.904-5.568-11.68-8.64-12.224-10.432-27.904-11.456-41.696-1.664-34.944 24.256-63.872 53.184-88.256 88.352-5.12 7.2-12.064 22.304 0.896 40.352 7.584 9.44 14.112 18.304 20.544 27.040 2.592 3.52 5.152 7.008 7.712 10.432-1.472 3.52-2.4 7.104-2.72 10.72-0.672 0.608-3.232 1.184-8.704 1.664-14.016 0.672-28.544 3.52-42.144 6.368-12.096 2.848-22.912 13.6-25.696 25.184-8.832 43.392-8.832 84.8-0.192 127.392 2.848 11.936 13.888 24 27.616 25.664 9.344 1.664 18.688 3.008 28.032 4.352 6.688 0.928 13.408 1.92 20.128 3.008 0.416 0.672 0.832 1.376 1.312 2.016 3.744 5.248 6.016 8.448-4.448 19.328-8.48 9.216-15.744 19.328-22.368 28.896-7.648 10.144-7.136 25.472-2.4 35.008 24.064 36.8 53.952 66.944 90.208 92.064 5.92 4.224 12.416 6.496 19.072 6.496 11.2 0 18.784-6.336 21.28-8.416 8.192-6.624 17.152-13.184 25.984-19.712 3.616-2.656 7.232-5.344 10.784-7.968 3.808 1.728 7.296 2.784 10.688 3.456 0.096 0.864 0.224 2.016 0.288 3.584 0.416 8.832 1.76 17.632 3.136 26.464 0.864 5.504 1.76 11.040 2.272 16.544 1.792 17.664 12.864 28.896 30.432 30.912 44.928 7.136 88.544 6.592 131.328-2.368 10.016-2.080 17.568-10.304 18.88-20.448 1.376-10.912 3.008-21.664 4.576-32.288 1.152-7.744 2.304-15.456 3.36-23.136 3.264-1.312 7.2-2.56 10.24-3.232 12.672 9.248 24.896 18.272 36.608 27.744 7.776 6.816 16.192 8.352 21.792 8.352 10.72 0 18.624-5.632 21.216-7.488 33.216-22.816 62.304-52.192 86.24-87.040 9.12-12.704 9.088-27.136-0.288-40.192-7.552-9.408-14.016-18.208-20.416-26.912-2.816-3.776-5.568-7.552-8.352-11.264 1.536-3.136 2.816-6.496 3.552-10.304-1.344-0.64-0.128-1.12 3.584-1.312 8.992-0.416 18.048-1.824 27.008-3.264 5.216-0.832 10.368-1.696 15.424-2.176 16.128-1.792 26.496-10.848 30.176-26.24 6.016-31.040 7.456-61.728 4.608-92.256-0.704-11.264-2.848-23.424-5.024-34.848-2.912-12.544-13.28-22.848-24.832-25.504-16.8-3.2-33.504-5.632-49.728-7.584-1.056-2.784-2.432-5.824-4.256-8.768 0 0-0.672-0.992-1.216-1.856 0.544-0.48 1.408-1.632 2.912-3.232 10.016-11.36 18.016-22.656 25.792-33.568 9.312-12.576 8.768-28.48 4.192-37.888-0.48-0.992-1.024-1.984-1.664-2.88-23.232-34.496-52.8-64.352-88-88.736-6.016-4.256-12.576-6.432-19.392-6.432-10.624 0-18.336 5.504-20.864 7.328-9.696 7.808-18.784 14.464-27.744 21.056l-10.080 7.52c-3.36-1.504-7.008-2.72-10.944-3.392-0.064-0.768-0.256-2.144-0.352-4.128-0.736-15.52-3.584-31.232-6.432-45.952-2.816-11.552-12.48-23.488-26.016-26.272-21.376-4.352-43.104-6.592-64.608-6.592zM295.2 140.096c31.040-4.672 59.136-4.32 88 0.544 1.76 9.76 3.296 19.776 3.744 29.28 1.632 35.136 22.56 46.080 39.776 49.088 0 0 0.928 0.288 3.104 1.6 9.056 6.752 27.36 7.36 40.352-3.552l14.528-10.72c6.816-5.024 13.728-10.080 20.416-15.296 24.192 17.984 44.48 38.304 61.568 61.92-6.272 8.8-11.904 16.384-18.24 23.552-25.792 27.616-14.816 52.032-5.952 64.064 1.92 10.688 8.704 26.368 31.296 28.832 13.824 1.568 28.096 3.488 42.112 5.888 1.024 6.176 1.984 12.736 2.368 19.072 2.144 23.2 1.504 45.952-1.92 68.224-2.656 0.416-5.344 0.832-8.064 1.248-7.168 1.152-14.432 2.368-21.728 2.72-36.352 1.792-45.952 26.112-48.448 40.512 0.16-1.12-0.704 0.224-1.344 1.312-4.672 7.424-10.592 22.592 2.016 40.512 4.576 5.984 8.576 11.424 12.608 16.928 4.704 6.432 9.504 12.864 14.336 19.2-17.888 24.352-38.56 45.152-61.76 62.208-12.128-9.504-24.288-18.4-36.448-27.232-4.64-3.616-11.232-5.664-18.944-5.664-6.24 0-51.904 6.272-59.392 31.552-1.664 4.896-1.664 9.28-1.664 12.16-0.992 5.92-2.368 15.008-3.712 24.16-0.768 5.248-1.568 10.528-2.336 15.808-28.608 4.352-57.6 4.384-88.96 0.224-0.352-2.944-0.832-5.888-1.28-8.8-1.12-7.104-2.272-14.176-2.624-21.28-1.632-34.656-22.176-45.472-39.136-48.416-0.032 0-0.992-0.32-3.040-1.536-4.224-3.168-10.944-5.408-17.76-5.408-11.072 0-19.2 5.824-21.888 7.744-5.696 4.32-10.976 8.224-16.32 12.128-6.464 4.8-13.024 9.6-19.392 14.528-24.384-18.144-44.896-38.816-61.344-61.728 4-5.536 8.128-10.912 12.416-15.584 30.176-31.52 21.12-60.16 11.008-76.352-0.96-3.040-2.752-7.168-6.592-10.88-4.256-4.448-10.624-11.072-20.8-13.056-9.888-1.76-19.36-3.136-28.832-4.48-5.792-0.832-11.584-1.664-17.376-2.56-4.8-28.992-4.768-57.952 0.224-87.456 8.736-1.696 17.504-3.136 25.952-3.52 12.224-0.992 46.72-3.904 52.96-42.080 7.392-11.072 9.984-26.88-2.496-41.824-3.328-4.384-7.296-9.792-11.296-15.232-4.864-6.592-9.76-13.248-14.784-19.744 17.952-24.16 38.464-44.672 62.432-62.432 2.080 1.504 4.128 2.976 6.176 4.416 5.568 3.936 11.104 7.68 15.776 12.384 21.344 20.16 43.968 22.528 65.344 8.608 1.184-0.512 2.208-0.864 2.592-0.96 8.544-1.92 24.16-8.672 26.688-31.232 0.96-8.672 2.272-17.344 3.52-25.984 0.928-5.824 1.76-11.616 2.56-17.408zM336.448 285.696c-75.712 0.8-136.448 62.048-135.68 136.608 0 74.176 60.64 134.752 135.136 134.752 0.064 0 1.376 0 1.44 0 74.656-0.768 135.424-61.632 135.424-135.648 0-74.848-61.152-135.712-136.32-135.712zM335.904 533.024v-24c-48.032 0-87.136-39.040-87.136-87.008-0.512-48.32 38.944-87.808 87.936-88.352 47.648 0 88.096 40.16 88.096 87.68 0 47.84-39.424 87.168-87.936 87.648l-0.96 24.032zM816.48 407.904c-12.16 0-24.64 1.152-37.088 3.456-12.608 1.792-22.144 11.584-24 25.408-0.608 5.472-1.344 10.336-2.048 15.2 0 0.192-0.032 0.352-0.064 0.544-2.080-1.6-4.224-3.136-6.368-4.672-2.016-1.44-4.064-2.848-6.016-4.448-6.688-5.76-14.016-7.072-18.848-7.072-6.144 0-12.032 1.984-17.472 5.888-20.64 14.336-38.56 32.288-52.96 53.12-7.552 10.432-7.456 23.584 0.512 34.784 3.904 4.864 7.072 9.12 10.048 13.184-6.688 0.864-12.576 2.016-18.24 3.2-10.944 2.656-19.872 11.456-22.528 21.568-5.568 27.168-5.568 52.224-0.352 78.016 2.848 10.944 12.032 21.312 24.512 22.848 5.312 0.928 10.592 1.696 15.872 2.464 0.352 0.032 0.704 0.096 1.056 0.128-4.064 4.832-7.68 9.824-10.944 14.56-5.888 7.616-7.072 20.544-2.112 30.432 15.168 23.232 33.184 41.44 55.104 56.672 10.592 7.648 24.416 7.424 35.328-1.44 3.84-3.136 7.872-6.144 11.872-9.12 0.288 2.048 0.608 4.064 0.896 6.112 0.48 2.944 0.928 5.888 1.248 8.832 1.344 14.912 11.552 25.28 26.688 26.848 25.344 4.032 52.736 3.808 78.336-1.536 10.016-2.080 17.6-10.272 18.912-20.416 0.736-5.76 1.6-11.424 2.4-17.056 0.192-1.12 0.352-2.208 0.512-3.328 4.16 3.104 8.096 6.112 11.936 9.248 6.464 5.728 13.984 7.072 18.944 7.072 6.4 0 12.576-2.144 18.368-6.4 19.584-13.408 37.248-31.168 51.744-52.256 7.584-10.656 7.584-23.776-0.256-34.784-3.904-4.928-7.168-9.248-10.24-13.44 2.208-0.288 4.416-0.64 6.56-0.992 2.816-0.448 5.568-0.896 8.288-1.184 13.408-1.472 22.88-9.632 26.144-22.4 3.84-19.776 4.704-38.336 2.976-56.736-0.384-6.272-1.632-13.792-2.976-20.896-3.104-11.744-11.584-20.128-21.6-22.656-6.56-1.216-12.8-2.272-18.88-3.168 3.776-4.8 7.040-9.376 10.208-13.984 7.104-9.088 6.336-22.56 2.304-30.784-0.512-0.96-1.056-1.952-1.664-2.848-14.080-20.864-31.968-38.912-53.216-53.6-4.96-3.584-10.784-5.536-16.896-5.536-9.024 0-15.36 4.32-17.472 5.728-5.152 4.128-9.376 7.296-13.408 10.24-0.768-6.144-1.856-12.032-2.944-17.76-2.976-12.128-12.416-21.12-23.2-23.232-12.736-2.464-25.92-3.808-38.976-3.808zM801.152 456.704c11.328-1.216 21.792-1.024 32.608 0.224 0.384 2.72 0.672 5.536 0.8 8.256 1.184 27.68 20 35.328 29.696 37.408 10.624 6.656 24.064 5.728 34.56-2.784l8.384-6.24c1.76-1.28 3.488-2.592 5.28-3.904 8.512 6.944 16 14.464 22.656 22.784-1.792 2.304-3.552 4.544-5.472 6.72-18.592 19.712-10.784 38.592-5.632 46.848 3.168 13.152 13.088 21.728 26.72 23.296 5.408 0.608 10.88 1.312 16.32 2.112 0.064 0.864 0.16 1.728 0.192 2.624 0.96 10.144 0.96 19.968-0.032 29.632-2.784 0.448-5.6 0.832-8.416 0.96-19.104 0.896-32.64 11.584-36.768 28.8-3.68 6.208-9.152 19.488 1.568 34.624l7.2 9.664c1.248 1.664 2.496 3.36 3.744 5.056-6.912 8.608-14.4 16.16-22.624 22.816-5.024-3.808-10.016-7.424-15.040-11.040-4.096-2.912-11.776-5.152-16.768-5.152-5.952 0-37.408 4.384-43.744 25.216-0.704 2.272-1.472 7.744-1.472 10.112-0.544 2.496-1.344 8.032-2.176 13.632 0 0.032 0 0.064 0 0.096-10.784 1.088-21.728 1.12-33.12 0-0.448-2.784-0.832-5.6-0.96-8.384-1.44-27.392-19.712-34.976-29.216-37.056-4.672-2.944-10.016-4.48-15.392-4.48v0c-6.336 0-12.544 2.112-18.368 6.24l-9.6 7.040c-1.696 1.248-3.36 2.496-5.088 3.744-8.544-6.944-15.936-14.4-22.4-22.464 0.608-0.736 1.216-1.44 1.888-2.144 22.016-23.040 14.208-44.736 7.648-55.488-1.312-3.2-3.264-6.336-5.44-8.512-2.752-2.848-8.256-8.608-17.28-10.368-6.016-1.088-11.616-1.888-17.248-2.688-0.736-0.096-1.504-0.192-2.24-0.32-1.152-10.56-1.12-21.376 0.192-32.384 2.112-0.288 4.288-0.544 6.464-0.64 27.456-2.24 36.672-17.312 39.488-30.592 6.432-11.136 5.152-24.192-3.328-34.336l-6.016-8.16c-1.28-1.728-2.56-3.424-3.84-5.184 7.008-8.608 14.688-16.256 23.232-23.2 1.792 1.28 3.52 2.592 5.056 4.128 15.744 14.752 33.344 16.608 48.96 7.136 12.608-3.072 21.248-13.024 22.752-26.816 0.544-4.832 1.248-9.696 1.984-14.528 0.064-0.8 0.16-1.536 0.288-2.304zM815.776 520.832c-49.184 0.544-88.576 40.32-88.064 88.704 0 48.096 39.392 87.456 87.808 87.456 0.096 0 0.832 0 0.928 0 48.448-0.544 87.808-40.032 87.808-88.064 0.032-48.576-39.648-88.096-88.48-88.096zM815.52 672.992v-24c-21.984 0-39.808-17.824-39.808-39.712-0.224-22.176 17.856-40.224 40.32-40.448 21.728 0 40.256 18.368 40.256 40.064 0 21.856-18.080 39.84-40.352 40.064l-0.416 24.032z" />
<glyph unicode="&#xe927;" glyph-name="cb-intenational" d="M711.744 108.576h-591.488c-61.92 0-112.256 50.368-112.256 112.288v317.184c0 61.92 50.368 112.256 112.256 112.256h360.864c13.248 0 24-10.752 24-24s-10.752-24-24-24h-360.864c-35.424 0-64.256-28.832-64.256-64.256v-317.184c0-35.424 28.832-64.288 64.256-64.288h591.488c35.424 0 64.256 28.832 64.256 64.288v55.712c0 13.248 10.752 24 24 24s24-10.752 24-24v-55.712c0-61.92-50.336-112.288-112.256-112.288zM498.272 492.576h-466.272c-13.248 0-24 10.752-24 24s10.752 24 24 24h466.272c13.248 0 24-10.752 24-24s-10.752-24-24-24zM525.728 382.848h-493.728c-13.248 0-24 10.752-24 24s10.752 24 24 24h493.728c13.248 0 24-10.752 24-24s-10.752-24-24-24zM196.576 218.272h-54.848c-13.248 0-24 10.752-24 24s10.752 24 24 24h54.848c13.248 0 24-10.752 24-24s-10.752-24-24-24zM333.728 218.272h-54.88c-13.248 0-24 10.752-24 24s10.752 24 24 24h54.848c13.248 0 24-10.752 24-24s-10.72-24-23.968-24zM470.848 218.272h-54.848c-13.248 0-24 10.752-24 24s10.752 24 24 24h54.848c13.248 0 24-10.752 24-24s-10.752-24-24-24zM786.272 328c-126.656 0-229.728 103.040-229.728 229.728 0 126.656 103.072 229.696 229.728 229.696s229.728-103.040 229.728-229.696c0-126.688-103.072-229.728-229.728-229.728zM786.272 739.424c-100.192 0-181.728-81.504-181.728-181.696s81.536-181.728 181.728-181.728 181.728 81.504 181.728 181.728c0 100.192-81.536 181.696-181.728 181.696zM786.24 328c-10.944 0-20.8 7.488-23.328 18.624-2.976 12.896 5.088 25.824 18.016 28.736 53.024 12.192 94.592 92.288 94.592 182.336 0 103.264-64.128 160.608-102.336 185.632-11.104 7.264-14.208 22.112-6.976 33.216 7.264 11.072 22.144 14.208 33.216 6.944 46.336-30.304 124.096-99.968 124.096-225.792 0-115.2-55.424-211.552-131.84-229.12-1.824-0.384-3.648-0.576-5.44-0.576zM992 533.728h-411.424c-13.248 0-24 10.752-24 24s10.752 24 24 24h411.424c13.248 0 24-10.752 24-24s-10.752-24-24-24zM786.272 328c-13.248 0-24 10.752-24 24v411.424c0 13.248 10.752 24 24 24s24-10.752 24-24v-411.424c0-13.248-10.752-24-24-24zM786.304 328c-1.792 0-3.584 0.192-5.408 0.608-76.416 17.568-131.84 113.92-131.84 229.12 0 125.76 77.728 195.424 124.064 225.792 11.136 7.296 26.016 4.128 33.216-6.912 7.296-11.104 4.192-25.984-6.912-33.248-38.24-25.056-102.368-82.464-102.368-185.632 0-90.048 41.568-170.144 94.592-182.336 12.896-2.944 20.96-15.84 18.016-28.736-2.528-11.136-12.416-18.656-23.36-18.656z" />
<glyph unicode="&#xe928;" glyph-name="cb" d="M857.024 136h-690.048c-70.016 0-126.976 56.96-126.976 126.976v370.048c0 70.016 56.96 126.976 126.976 126.976h690.048c70.016 0 126.976-56.96 126.976-126.976v-370.048c0-70.016-56.96-126.976-126.976-126.976zM166.976 712c-43.552 0-78.976-35.424-78.976-78.976v-370.048c0-43.52 35.424-78.976 78.976-78.976h690.048c43.52 0 78.976 35.424 78.976 78.976v370.048c0 43.552-35.424 78.976-78.976 78.976h-690.048zM960 584h-896c-13.248 0-24 10.752-24 24s10.752 24 24 24h896c13.248 0 24-10.752 24-24s-10.752-24-24-24zM960 456h-896c-13.248 0-24 10.752-24 24s10.752 24 24 24h896c13.248 0 24-10.752 24-24s-10.752-24-24-24zM256 264h-64c-13.248 0-24 10.752-24 24s10.752 24 24 24h64c13.248 0 24-10.752 24-24s-10.752-24-24-24zM416 264h-64c-13.248 0-24 10.752-24 24s10.752 24 24 24h64c13.248 0 24-10.752 24-24s-10.752-24-24-24zM576 264h-64c-13.248 0-24 10.752-24 24s10.752 24 24 24h64c13.248 0 24-10.752 24-24s-10.752-24-24-24z" />
<glyph unicode="&#xe929;" glyph-name="happy-laptop" d="M906.784 522.176c-5.344 0-9.952 4-10.56 9.44-0.672 5.856 3.52 11.136 9.376 11.776l74.56 8.512c5.856 0.672 11.104-3.552 11.776-9.376 0.672-5.856-3.52-11.136-9.376-11.808l-74.56-8.512c-0.416 0-0.8-0.032-1.216-0.032zM936.352 364.928c-2.304 0-4.672 0.736-6.592 2.304l-54.208 43.136c-4.64 3.616-5.376 10.336-1.728 14.944s10.336 5.376 14.976 1.696l54.208-43.104c4.608-3.648 5.344-10.336 1.696-14.976-2.112-2.624-5.216-4-8.352-4zM849.472 637.344c-2.304 0-4.672 0.736-6.624 2.304-4.608 3.648-5.376 10.368-1.696 14.976l43.104 54.208c3.648 4.608 10.336 5.376 14.976 1.696 4.608-3.648 5.344-10.368 1.696-14.976l-43.104-54.208c-2.144-2.624-5.216-4-8.352-4zM117.216 522.176c-0.416 0-0.8 0-1.216 0.064l-74.56 8.512c-5.856 0.672-10.016 5.952-9.376 11.808s5.952 10.016 11.776 9.376l74.56-8.512c5.856-0.672 10.016-5.952 9.376-11.776-0.608-5.472-5.216-9.472-10.56-9.472zM87.616 364.928c-3.136 0-6.208 1.376-8.352 4-3.648 4.64-2.88 11.328 1.728 14.976l54.208 43.104c4.608 3.648 11.328 2.88 14.976-1.696 3.648-4.608 2.912-11.328-1.728-14.944l-54.208-43.136c-1.92-1.536-4.256-2.304-6.624-2.304zM174.528 637.344c-3.136 0-6.208 1.376-8.352 4l-43.104 54.24c-3.68 4.608-2.88 11.296 1.696 14.976 4.608 3.68 11.296 2.88 14.976-1.696l43.136-54.208c3.648-4.608 2.88-11.328-1.728-14.976-1.952-1.6-4.288-2.336-6.624-2.336zM427.264 407.424c-3.936 0-7.328 2.912-7.904 6.912l-1.888 13.44c-1.248 9.152 1.088 18.208 6.656 25.6s13.664 12.128 22.816 13.408c18.912 2.656 36.384-10.56 39.040-29.44l1.888-13.44c0.608-4.384-2.464-8.384-6.816-9.024-4.416-0.64-8.416 2.432-9.024 6.784l-1.888 13.472c-1.408 10.144-10.976 17.184-20.96 15.84-4.928-0.672-9.28-3.264-12.288-7.232s-4.256-8.832-3.552-13.76l1.888-13.472c0.608-4.352-2.464-8.416-6.816-8.992-0.416-0.064-0.8-0.096-1.152-0.096zM533.056 422.208c-3.904 0-7.328 2.88-7.904 6.88l-1.888 13.44c-1.28 9.152 1.088 18.24 6.656 25.6s13.664 12.128 22.816 13.408c18.784 2.656 36.384-10.56 39.040-29.44l1.888-13.44c0.608-4.384-2.464-8.416-6.816-9.024-4.416-0.608-8.416 2.432-9.024 6.784l-1.888 13.472c-1.408 10.144-11.008 17.184-20.96 15.84-4.928-0.672-9.28-3.264-12.288-7.232s-4.288-8.864-3.552-13.76l1.888-13.472c0.608-4.384-2.464-8.416-6.816-9.024-0.384 0-0.768-0.032-1.152-0.032zM486.592 325.248c-51.040 0-100.288 16.992-141.344 49.184-3.488 2.752-4.096 7.744-1.376 11.264 2.72 3.424 7.744 4.096 11.232 1.312 46.208-36.256 103.552-51.808 161.536-43.68 57.92 8.064 108.832 38.688 143.36 86.24 2.592 3.552 7.584 4.352 11.168 1.76 3.552-2.592 4.352-7.584 1.76-11.168-37.088-51.104-91.808-84-154.080-92.672-10.816-1.504-21.568-2.24-32.256-2.24zM808.64 230.56h-593.28c-4.416 0-8 3.552-8 8v298.72c0 29.408 23.936 53.376 53.376 53.376h502.496c29.44 0 53.376-23.968 53.376-53.376v-298.688c0.032-4.48-3.584-8.032-7.968-8.032zM223.36 246.56h577.28v290.72c0 20.64-16.768 37.376-37.408 37.376h-502.496c-20.64 0-37.376-16.768-37.376-37.376v-290.72zM832.352 183.136h-640.704c-30.592 0-55.456 24.864-55.456 55.424 0 4.384 3.584 8 8 8h735.616c4.416 0 8-3.616 8-8 0-30.56-24.864-55.424-55.456-55.424zM152.992 230.56c3.68-17.952 19.616-31.488 38.656-31.488h640.672c19.040 0 34.976 13.568 38.688 31.488h-718.016zM559.456 218.688h-94.944c-4.416 0-7.968 3.616-7.968 8 0 4.448 3.552 8 7.968 8h94.944c4.416 0 7.968-3.552 7.968-8 0-4.384-3.552-8-7.968-8zM773.024 230.56h-522.048c-4.416 0-7.968 3.552-7.968 8v280.064c0 20.064 16.32 36.416 36.384 36.416h465.248c20.064 0 36.416-16.32 36.416-36.416v-280.064c-0.032-4.448-3.616-8-8.032-8zM258.976 246.56h506.080v272.064c0 11.264-9.184 20.448-20.448 20.448h-465.248c-11.264 0-20.416-9.184-20.416-20.448v-272.064z" />
<glyph unicode="&#xe92a;" glyph-name="moins" d="M512 104c-189.696 0-344 154.304-344 344s154.304 344 344 344 344-154.304 344-344-154.304-344-344-344zM512 744c-163.232 0-296-132.768-296-296s132.768-296 296-296 296 132.768 296 296-132.768 296-296 296zM652.32 424h-280.672c-13.248 0-24 10.752-24 24s10.752 24 24 24h280.672c13.248 0 24-10.752 24-24s-10.752-24-24-24z" />
<glyph unicode="&#xe92b;" glyph-name="graph" d="M175.392 101.312c-3.776 0-7.552 1.44-10.464 4.256-5.952 5.792-6.112 15.328-0.32 21.28l294.912 303.904c5.472 5.632 14.464 6.080 20.512 0.992l100.384-84.736 313.984 329.248c5.76 6.048 15.264 6.24 21.28 0.512s6.24-15.264 0.512-21.28l-323.776-339.488c-5.536-5.824-14.528-6.24-20.64-1.12l-100.448 84.832-285.152-293.856c-2.944-3.008-6.848-4.544-10.784-4.544zM930.976 494.368c-8.288 0-15.040 6.72-15.040 15.040v168.352h-168.352c-8.32 0-15.040 6.752-15.040 15.040 0 8.32 6.72 15.040 15.040 15.040h183.36c8.32 0 15.072-6.72 15.072-15.040v-183.36c0-8.32-6.72-15.072-15.040-15.072zM47.040-32c-8.32 0-15.040 6.72-15.040 15.040v929.888c0 8.32 6.72 15.072 15.040 15.072s15.040-6.72 15.040-15.040v-929.92c0-8.32-6.752-15.040-15.040-15.040zM141.632 712.8h-94.368c-8.288 0-15.040 6.72-15.040 15.040 0 8.288 6.72 15.040 15.040 15.040h94.368c8.288 0 15.040-6.72 15.040-15.040 0-8.288-6.752-15.040-15.040-15.040zM141.632 498.176h-94.368c-8.288 0-15.040 6.752-15.040 15.040s6.72 15.040 15.040 15.040h94.368c8.288 0 15.040-6.752 15.040-15.040s-6.752-15.040-15.040-15.040zM141.632 283.552h-94.368c-8.288 0-15.040 6.752-15.040 15.072 0 8.288 6.72 15.040 15.040 15.040h94.368c8.288 0 15.040-6.752 15.040-15.040 0-8.32-6.752-15.072-15.040-15.072zM976.96-31.328h-929.92c-8.32 0-15.040 6.752-15.040 15.072s6.72 15.040 15.040 15.040h929.92c8.32 0 15.040-6.72 15.040-15.040s-6.72-15.072-15.040-15.072zM791.872-31.136c-8.32 0-15.040 6.752-15.040 15.072v94.336c0 8.32 6.72 15.072 15.040 15.072s15.072-6.752 15.072-15.072v-94.336c0-8.32-6.752-15.072-15.072-15.072zM577.248-31.136c-8.288 0-15.040 6.752-15.040 15.072v94.336c0 8.32 6.752 15.072 15.040 15.072 8.32 0 15.072-6.752 15.072-15.072v-94.336c0-8.32-6.752-15.072-15.072-15.072zM362.624-31.136c-8.288 0-15.040 6.752-15.040 15.072v94.336c0 8.32 6.72 15.072 15.040 15.072s15.040-6.752 15.040-15.072v-94.336c0-8.32-6.72-15.072-15.040-15.072z" />
<glyph unicode="&#xe92c;" glyph-name="refresh-arrow" d="M510.624 183.808c-145.664 0-264.192 118.496-264.192 264.16s118.528 264.192 264.192 264.192c94.976 0 183.104-51.36 229.952-134.080 6.528-11.52 2.496-26.176-9.024-32.704-11.584-6.624-26.176-2.496-32.704 9.056-38.336 67.712-110.464 109.76-188.192 109.76-119.2 0-216.192-96.992-216.192-216.192 0-119.168 96.992-216.16 216.192-216.16 89.6 0 170.976 56.384 202.496 140.256 4.672 12.448 18.528 18.688 30.912 14.048 12.416-4.672 18.688-18.496 14.016-30.944-38.528-102.528-137.952-171.392-247.456-171.392zM730.976 522.304c-1.376 0-2.752 0.096-4.128 0.352l-73.408 12.704c-13.056 2.272-21.824 14.688-19.552 27.744 2.272 13.088 14.88 21.696 27.744 19.552l52.608-9.12 16.416 53.44c3.872 12.672 17.056 19.808 30.016 15.904 12.672-3.904 19.776-17.312 15.872-29.984l-22.624-73.632c-3.168-10.208-12.608-16.96-22.944-16.96z" />
<glyph unicode="&#xe92d;" glyph-name="laptop-sad" d="M242.112 34.144c-3.104 0-6.208 0.608-9.184 1.824-8.96 3.712-14.816 12.48-14.816 22.176v84.384h-23.872c-49.76 0-90.24 40.512-90.24 90.24v394.688c0 49.76 40.48 90.208 90.24 90.208h509.408c49.76 0 90.24-40.48 90.24-90.208v-394.688c0-49.76-40.512-90.24-90.24-90.24h-343.232l-101.344-101.344c-4.576-4.576-10.72-7.040-16.96-7.040zM194.24 669.696c-23.296 0-42.24-18.944-42.24-42.208v-394.688c0-23.296 18.944-42.24 42.24-42.24h47.872c13.248 0 24-10.752 24-24v-50.432l67.392 67.392c4.512 4.512 10.624 7.040 16.96 7.040h353.184c23.296 0 42.24 18.976 42.24 42.24v394.656c0 23.296-18.976 42.208-42.24 42.208h-509.408zM607.296 313.408c9.376 9.376 9.376 24.576 0 33.952-87.328 87.264-229.344 87.264-316.672 0-9.376-9.376-9.376-24.576 0-33.952s24.576-9.376 33.952 0c68.576 68.576 180.192 68.576 248.768 0 4.672-4.672 10.848-7.040 16.96-7.040 6.176 0 12.288 2.336 16.992 7.040zM844.384 728.704l37.632 37.632c9.376 9.376 9.376 24.576 0 33.952s-24.576 9.376-33.952 0l-37.632-37.632c-9.376-9.376-9.376-24.576 0-33.952 4.672-4.672 10.816-7.040 16.96-7.040s12.288 2.368 16.992 7.040zM937.728 665.824c0 13.248-10.752 24-24 24h-53.184c-13.248 0-24-10.752-24-24s10.752-24 24-24h53.184c13.248 0 24 10.752 24 24zM882.016 531.328c9.376 9.376 9.376 24.576 0 33.952l-37.632 37.632c-9.376 9.376-24.576 9.376-33.952 0s-9.376-24.576 0-33.952l37.632-37.632c4.672-4.672 10.816-7.040 16.96-7.040s12.288 2.368 16.992 7.040zM771.552 778.784v53.216c0 13.248-10.752 24-24 24s-24-10.752-24-24v-53.216c0-13.248 10.752-24 24-24s24 10.752 24 24zM594.496 488.832v46.944c0 13.248-10.752 24-24 24s-24-10.752-24-24v-46.944c0-7.328-5.984-13.312-13.312-13.312h-6.432c-7.328 0-13.312 5.984-13.312 13.312v46.944c0 13.248-10.752 24-24 24s-24-10.752-24-24v-46.944c0-33.824 27.488-61.312 61.312-61.312h6.432c33.824 0 61.312 27.52 61.312 61.312zM432.416 488.832v46.944c0 13.248-10.752 24-24 24s-24-10.752-24-24v-46.944c0-7.328-5.984-13.312-13.312-13.312h-6.432c-7.328 0-13.312 5.984-13.312 13.312v46.944c0 13.248-10.752 24-24 24s-24-10.752-24-24v-46.944c0-33.824 27.488-61.312 61.312-61.312h6.432c33.824 0 61.312 27.52 61.312 61.312z" />
<glyph unicode="&#xe92e;" d="M413.6 183.616c-3.104 0-6.208 0.608-9.184 1.824-8.96 3.712-14.816 12.48-14.816 22.176v88.288h-22.432c-50.848 0-92.224 41.376-92.224 92.224v379.488c0 50.848 41.376 92.224 92.224 92.224h522.816c50.848 0 92.192-41.376 92.192-92.224v-379.488c0-50.848-41.344-92.224-92.192-92.224h-354.176l-105.248-105.248c-4.576-4.608-10.72-7.040-16.96-7.040zM367.168 811.84c-24.384 0-44.224-19.84-44.224-44.224v-379.488c0-24.384 19.84-44.224 44.224-44.224h46.432c13.248 0 24-10.752 24-24v-54.336l71.328 71.328c4.512 4.512 10.624 7.040 16.96 7.040h364.128c24.384 0 44.192 19.84 44.192 44.224v379.456c0 24.384-19.808 44.224-44.192 44.224h-522.848z" />
<glyph unicode="&#xe92f;" d="M458.112 16.704c-5.888 0-11.68 2.144-16.192 6.272l-79.104 72.256h-209.408c-50.688 0-91.936 41.248-91.936 91.936v179.424c0 50.688 41.248 91.936 91.936 91.936h46.72c13.248 0 24-10.752 24-24s-10.752-24-24-24h-46.72c-24.224 0-43.936-19.712-43.936-43.936v-179.424c0-24.224 19.712-43.936 43.936-43.936h218.72c5.984 0 11.776-2.24 16.192-6.272l45.792-41.824v24.096c0 13.248 10.752 24 24 24h75.36c24.256 0 43.936 19.712 43.936 43.936v18.048c0 13.248 10.752 24 24 24s24-10.752 24-24v-18.048c0-50.688-41.248-91.936-91.936-91.936h-51.36v-54.528c0-9.504-5.6-18.112-14.304-21.984-3.104-1.344-6.4-2.016-9.696-2.016z" />
<glyph unicode="&#xe930;" d="M633.824 723.936c13.76 0 24.224-10.4 24.224-24.224v-3.392c0-13.728-10.464-23.84-24.224-23.84h-10.464c-13.824 0-24.224 10.112-24.224 23.84v3.392c0 13.824 10.4 24.224 24.224 24.224h10.464zM633.824 641.984c13.76 0 24.224-10.112 24.224-23.872v-145.728c0-14.176-10.464-24.224-24.224-24.224h-10.464c-13.824 0-24.224 10.048-24.224 24.224v145.728c0 13.76 10.4 23.872 24.224 23.872h10.464z" />
<glyph unicode="&#xe931;" glyph-name="star" d="M542.944 733.44l64.48-153.248c4.832-11.52 15.68-19.424 28.128-20.48l165.696-13.952c29.632-2.496 41.632-39.424 19.104-58.848l-125.856-108.672c-9.44-8.128-13.568-20.864-10.752-33.056l37.952-161.856c6.784-28.96-24.64-51.776-50.048-36.384l-142.24 86.016c-10.656 6.496-24.032 6.496-34.72 0l-142.24-86.016c-25.44-15.392-56.832 7.392-50.080 36.384l37.952 161.856c2.848 12.192-1.312 24.928-10.752 33.056l-125.824 108.672c-22.496 19.424-10.496 56.352 19.136 58.848l165.664 13.952c12.448 1.024 23.264 8.928 28.128 20.48l64.448 153.248c11.456 27.392 50.272 27.392 61.824 0z" />
<glyph unicode="&#xe932;" glyph-name="document" d="M785.344 76.096h-546.688c-13.248 0-24 10.752-24 24v695.776c0 13.248 10.752 24 24 24h397.6c6.368 0 12.48-2.528 16.96-7.040l149.088-149.088c4.512-4.512 7.040-10.624 7.040-16.96v-546.688c0-13.248-10.752-24-24-24zM262.656 124.096h498.688v512.736l-135.040 135.040h-363.648v-647.776zM561.696 573.088h-198.816c-13.248 0-24 10.752-24 24s10.752 24 24 24h198.816c13.248 0 24-10.752 24-24s-10.752-24-24-24zM661.088 423.968h-298.208c-13.248 0-24 10.752-24 24s10.752 24 24 24h298.208c13.248 0 24-10.752 24-24s-10.752-24-24-24zM661.088 274.912h-298.208c-13.248 0-24 10.752-24 24s10.752 24 24 24h298.208c13.248 0 24-10.752 24-24s-10.752-24-24-24zM785.344 622.784h-149.088c-13.248 0-24 10.752-24 24v149.12c0 13.248 10.752 24 24 24s24-10.752 24-24v-125.12h125.088c13.248 0 24-10.752 24-24s-10.752-24-24-24z" />
<glyph unicode="&#xe933;" glyph-name="virement" d="M444 394.24v0c-5.504 0-10.816 2.208-14.688 6.080l-77.184 77.248c-8.128 8.128-8.128 21.28 0 29.408l133.248 133.28-56.096 56.064c-5.952 5.952-7.744 14.88-4.512 22.656s10.816 12.832 19.232 12.832h221.984c11.488 0 20.8-9.312 20.8-20.8v-222.016c0-8.416-5.088-16-12.832-19.232-7.808-3.168-16.672-1.44-22.688 4.512l-59.264 59.328-133.312-133.28c-3.904-3.872-9.184-6.080-14.688-6.080zM396.192 492.288l47.776-47.808 133.312 133.248c3.904 3.904 9.216 6.080 14.72 6.080v0c5.536 0 10.816-2.176 14.72-6.080l38.432-38.464v150.976h-150.944l35.264-35.296c3.904-3.904 6.080-9.184 6.080-14.688s-2.176-10.816-6.080-14.688l-133.28-133.28zM582.304 100.576c-0.16 0.032-0.416 0.032-0.64 0h-221.952c-11.488 0-20.8 9.312-20.8 20.8v221.984c0 8.416 5.056 16 12.832 19.232 7.68 3.2 16.672 1.44 22.656-4.512l56.032-56.096 133.248 133.28c8.128 8.128 21.312 8.128 29.44 0l77.216-77.184c3.872-3.904 6.080-9.184 6.080-14.72s-2.208-10.816-6.080-14.72l-133.28-133.216 56.544-56.608c5.728-3.712 9.472-10.112 9.472-17.44 0.064-11.488-9.248-20.8-20.768-20.8zM380.544 142.176h150.944l-38.496 38.528c-8.096 8.128-8.096 21.28 0 29.408l133.28 133.216-47.808 47.776-133.28-133.28c-3.904-3.872-9.184-6.080-14.688-6.080v0c-5.504 0-10.816 2.208-14.72 6.080l-35.232 35.296v-150.944z" />
<glyph unicode="&#xe934;" glyph-name="locker-alt" d="M706.272 535.392h-48v112.96c0 88-71.584 159.616-159.616 159.616-88 0-159.616-71.616-159.616-159.616v-112.96h-48v112.96c0 114.496 93.152 207.616 207.616 207.616 114.496 0 207.616-93.152 207.616-207.616v-112.96zM732.256 538.624h-467.2c-28.032 0-50.784-22.752-50.784-50.784v-317.536c0-28.032 22.752-50.752 50.784-50.752h467.2c28.032 0 50.784 22.72 50.784 50.752v317.536c0 28.032-22.752 50.784-50.784 50.784zM532.096 268.128c0-18.464-14.976-33.44-33.44-33.44-18.432 0-33.44 14.976-33.44 33.44v104.352c0 18.464 15.008 33.44 33.44 33.44 18.464 0 33.44-14.976 33.44-33.44v-104.352z" />
<glyph unicode="&#xe935;" glyph-name="locker-check" d="M733.472-32h-599.488c-46.464 0-84.288 37.824-84.288 84.288v407.136c0 46.496 37.824 84.288 84.288 84.288h470.496v-37.216h-470.496c-25.984 0-47.104-21.12-47.104-47.104v-407.136c0-25.952 21.12-47.072 47.104-47.072h599.488c25.952 0 47.072 21.12 47.072 47.072v286.848h37.184v-286.848c0-46.432-37.792-84.256-84.256-84.256zM202.272 524.736h-37.216v134.624c0 148.128 120.544 268.64 268.672 268.64s268.64-120.512 268.64-268.64h-37.216c0 127.616-103.808 231.424-231.392 231.424-127.616 0-231.424-103.808-231.424-231.424v-134.624zM433.728 141.728c-20.576 0-37.216 16.672-37.216 37.216v116.672c0 20.576 16.672 37.216 37.216 37.216s37.216-16.672 37.216-37.216v-116.672c0-20.576-16.704-37.216-37.216-37.216zM782.336 326.208c-105.824 0-191.904 86.080-191.904 191.936s86.080 191.968 191.904 191.968c105.856 0 191.968-86.112 191.968-191.968s-86.112-191.936-191.968-191.936zM782.336 672.896c-85.312 0-154.72-69.408-154.72-154.752 0-85.312 69.408-154.72 154.72-154.72 85.344 0 154.752 69.408 154.752 154.72 0 85.344-69.408 154.752-154.752 154.752zM766.752 455.488c-0.224 0-0.448 0-0.672 0-5.152 0.16-10.016 2.496-13.376 6.368l-46.656 53.504c-6.752 7.744-5.952 19.488 1.824 26.24 7.712 6.72 19.488 5.984 26.24-1.824l33.536-38.496 72.8 72.8c7.264 7.264 19.040 7.264 26.304 0s7.264-19.040 0-26.304l-86.912-86.88c-3.424-3.456-8.192-5.408-13.088-5.408z" />
<glyph unicode="&#xe936;" glyph-name="happy-iphone" d="M512.992 825.504h-165.92c-7.68 0-13.92 6.24-13.92 13.952s6.24 13.92 13.92 13.92h165.92c7.68 0 13.92-6.208 13.92-13.92s-6.24-13.952-13.92-13.952zM694.464 132.96h-528.864c-7.68 0-13.92 6.24-13.92 13.952s6.24 13.92 13.92 13.92h528.864c7.68 0 13.952-6.208 13.952-13.92s-6.272-13.952-13.952-13.952zM667.392-32h-474.72c-22.592 0-40.992 18.368-40.992 40.96v878.080c0 22.56 18.4 40.96 40.992 40.96h474.72c22.592 0 40.992-18.4 40.992-40.96v-146.4h-27.872v146.4c0 7.232-5.888 13.12-13.12 13.12h-474.72c-7.232 0-13.152-5.92-13.152-13.12v-878.080c0-7.264 5.92-13.12 13.152-13.12h474.72c7.264 0 13.12 5.888 13.12 13.12v316.032h27.872v-316.032c0.032-22.592-18.368-40.96-40.992-40.96zM430.048 22.656c-25.376 0-46.048 20.672-46.048 46.016s20.672 46.016 46.048 46.016c25.376 0 46.016-20.672 46.016-46.016s-20.64-46.016-46.016-46.016zM430.048 86.848c-10.016 0-18.208-8.128-18.208-18.144s8.16-18.176 18.208-18.176c10.016 0 18.176 8.16 18.176 18.176s-8.16 18.144-18.176 18.144zM441.792 238.336c-1.792 0-3.616 0.352-5.344 1.056-5.216 2.144-8.608 7.232-8.608 12.864v73.344h-24.736c-39.232 0-71.136 31.904-71.136 71.168v286.624c0 39.232 31.936 71.136 71.136 71.136h398.016c39.264 0 71.168-31.904 71.168-71.136v-286.624c0-39.264-31.904-71.168-71.168-71.168h-266.336l-83.2-83.2c-2.592-2.656-6.176-4.064-9.792-4.064zM403.136 726.688c-23.872 0-43.296-19.392-43.296-43.296v-286.624c0-23.872 19.424-43.328 43.296-43.328h38.656c7.68 0 13.92-6.208 13.92-13.92v-53.696l63.488 63.52c2.624 2.592 6.144 4.064 9.856 4.064h272.096c23.872 0 43.328 19.424 43.328 43.328v286.656c0 23.872-19.424 43.296-43.328 43.296h-398.016zM602.144 437.216c-59.232 0-114.912 23.072-156.8 64.96-5.44 5.44-5.44 14.24 0 19.68s14.24 5.44 19.68 0c36.64-36.64 85.344-56.8 137.12-56.8s100.512 20.192 137.12 56.8c5.44 5.44 14.24 5.44 19.68 0s5.44-14.24 0-19.68c-41.888-41.888-97.568-64.96-156.8-64.96zM552.448 554.688c-7.68 0-13.92 6.208-13.92 13.92v42.016c0 10.72-8.736 19.456-19.488 19.456h-5.76c-10.72 0-19.456-8.736-19.456-19.456v-42.016c0-7.68-6.24-13.92-13.92-13.92s-13.92 6.208-13.92 13.92v42.016c0 26.080 21.248 47.328 47.328 47.328h5.76c26.112 0 47.328-21.216 47.328-47.328v-42.016c-0.032-7.712-6.272-13.92-13.952-13.92zM726.4 554.688c-7.68 0-13.92 6.208-13.92 13.92v42.016c0 10.72-8.736 19.456-19.456 19.456h-5.76c-10.752 0-19.488-8.736-19.488-19.456v-42.016c0-7.68-6.24-13.92-13.952-13.92s-13.92 6.208-13.92 13.92v42.016c0 26.080 21.216 47.328 47.328 47.328h5.76c26.048 0 47.328-21.216 47.328-47.328v-42.016c0.032-7.712-6.24-13.92-13.92-13.92z" />
<glyph unicode="&#xe937;" glyph-name="multi-devices" d="M717.44 196.384h-246.24c-5.824 0-10.528 4.704-10.528 10.528s4.704 10.528 10.528 10.528h246.24c5.824 0 10.496-4.704 10.496-10.528s-4.672-10.528-10.496-10.528zM666.688 196.384h-152.768c-3.872 0-7.424 2.112-9.28 5.536s-1.664 7.552 0.512 10.816c3.904 5.952 7.136 12.384 9.568 19.136 4.384 12.32 7.008 26.208 8.288 44.16h-96.192c-5.824 0-10.528 4.704-10.528 10.528s4.704 10.528 10.528 10.528h410.624c5.824 0 10.528-4.704 10.528-10.528s-4.704-10.528-10.528-10.528h-179.84c1.28-17.92 3.904-31.84 8.32-44.192 2.4-6.72 5.632-13.152 9.568-19.104 2.112-3.232 2.304-7.36 0.512-10.784-1.888-3.456-5.44-5.568-9.312-5.568zM531.584 217.44h117.376c-1.024 2.4-2.016 4.832-2.912 7.328-5.184 14.528-8.224 30.656-9.568 51.264h-92.448c-1.344-20.64-4.384-36.704-9.568-51.264-0.832-2.496-1.792-4.928-2.88-7.328zM271.776 442.176c-5.824 0-10.528 4.704-10.528 10.528v235.776c0 13.568 11.616 24.224 26.432 24.224h605.184c14.816 0 26.432-10.656 26.432-24.224v-214.624c0-5.824-4.672-10.528-10.496-10.528-5.856 0-10.528 4.704-10.528 10.528v214.624c0 1.536-1.92 3.168-5.408 3.168h-605.184c-3.488 0-5.376-1.632-5.376-3.168v-235.744c0-5.824-4.704-10.56-10.528-10.56zM981.504 254.368h-140.96c-5.824 0-10.528 4.704-10.528 10.528s4.704 10.528 10.528 10.528h140.96c5.824 0 10.496-4.704 10.496-10.528s-4.672-10.528-10.496-10.528zM970.88 197.792h-119.744c-11.648 0-21.12 9.504-21.12 21.152v241.472c0 11.648 9.472 21.152 21.12 21.152h119.744c11.648 0 21.12-9.472 21.12-21.152v-241.472c0-11.648-9.472-21.152-21.12-21.152zM851.136 460.512l-0.064-241.568 119.808-0.096c0.032 0 0.032 0 0.032 0l0.064 241.568-119.84 0.096zM919.776 235.648c0 4.832-3.904 8.768-8.768 8.768-4.832 0-8.768-3.936-8.768-8.768 0-4.864 3.936-8.768 8.768-8.768 4.864 0 8.768 3.904 8.768 8.768zM128.448 183.328c-5.824 0-10.528 4.704-10.528 10.528v258.88c0 5.824 4.704 10.528 10.528 10.528s10.528-4.704 10.528-10.528v-258.88c0-5.824-4.736-10.528-10.528-10.528zM405.792 183.328h-342.272c-17.376 0-31.52 14.144-31.52 31.52v216.864c0 17.376 14.144 31.52 31.52 31.52h342.24c17.408 0 31.52-14.144 31.52-31.52v-216.864c0.032-17.376-14.080-31.52-31.488-31.52zM63.52 442.176c-5.792 0-10.464-4.672-10.464-10.464v-216.864c0-5.792 4.672-10.464 10.464-10.464h342.24c5.792 0 10.464 4.672 10.464 10.464v216.864c0 5.792-4.672 10.464-10.464 10.464h-342.24zM104.352 317.76c0-11.116-9.012-20.128-20.128-20.128s-20.128 9.012-20.128 20.128c0 11.116 9.012 20.128 20.128 20.128s20.128-9.012 20.128-20.128zM590.272 448.32c-31.936 0-62.016 12.448-84.576 35.040-4.128 4.096-4.128 10.784 0 14.88 4.096 4.096 10.752 4.096 14.88 0 18.624-18.624 43.36-28.864 69.696-28.864s51.072 10.24 69.696 28.864c4.096 4.096 10.784 4.096 14.88 0 4.128-4.096 4.128-10.784 0-14.88-22.592-22.592-52.64-35.040-84.576-35.040zM572.48 509.984c-5.824 0-10.528 4.704-10.528 10.528v22.048c0 3.872-3.168 7.008-7.040 7.008h-3.008c-3.84 0-7.008-3.136-7.008-7.008v-22.048c0-5.824-4.704-10.528-10.528-10.528s-10.528 4.704-10.528 10.528v22.048c0 15.456 12.608 28.064 28.064 28.064h3.008c15.488 0 28.064-12.608 28.064-28.064v-22.048c0-5.824-4.704-10.528-10.496-10.528zM648.64 509.984c-5.824 0-10.528 4.704-10.528 10.528v22.048c0 3.872-3.168 7.008-7.008 7.008h-3.040c-3.84 0-7.008-3.136-7.008-7.008v-22.048c0-5.824-4.704-10.528-10.528-10.528s-10.528 4.704-10.528 10.528v22.048c0 15.456 12.608 28.064 28.064 28.064h3.040c15.456 0 28.064-12.608 28.064-28.064v-22.048c0-5.824-4.736-10.528-10.528-10.528zM257.696 271.68c-21.28 0-41.312 8.288-56.352 23.328-3.328 3.328-3.328 8.64 0 11.936 3.296 3.264 8.64 3.264 11.904-0.032 11.872-11.872 27.648-18.4 44.448-18.4s32.608 6.528 44.48 18.4c3.296 3.296 8.64 3.296 11.904 0s3.296-8.64 0-11.904c-15.072-15.040-35.072-23.328-56.384-23.328zM246.016 312c-4.672 0-8.416 3.744-8.416 8.416v14.4c0 1.696-1.376 3.072-3.040 3.072h-1.952c-1.664 0-3.040-1.376-3.040-3.072v-14.4c0-4.672-3.744-8.416-8.416-8.416s-8.448 3.744-8.448 8.416v14.4c0 10.976 8.928 19.904 19.872 19.904h2.016c10.976 0 19.872-8.928 19.872-19.904v-14.4c0-4.672-3.776-8.416-8.448-8.416zM295.808 312c-4.672 0-8.416 3.744-8.416 8.416v14.4c0 1.696-1.376 3.072-3.040 3.072h-1.984c-1.664 0-3.040-1.376-3.040-3.072v-14.4c0-4.672-3.744-8.416-8.416-8.416s-8.448 3.744-8.448 8.416v14.4c0 10.976 8.896 19.904 19.872 19.904h2.016c10.976 0 19.872-8.928 19.872-19.904v-14.4c0.032-4.672-3.744-8.416-8.416-8.416z" />
<glyph unicode="&#xe938;" glyph-name="rib" d="M800 272h-576c-8.832 0-16 7.168-16 16v320c0 8.832 7.168 16 16 16h576c8.832 0 16-7.168 16-16v-320c0-8.832-7.168-16-16-16zM240 304h544v288h-544v-288zM416 432h-64c-8.832 0-16 7.136-16 16s7.168 16 16 16h64c8.832 0 16-7.168 16-16s-7.168-16-16-16zM544 432h-64c-8.832 0-16 7.136-16 16s7.168 16 16 16h64c8.832 0 16-7.168 16-16s-7.168-16-16-16zM672 432h-64c-8.832 0-16 7.136-16 16s7.168 16 16 16h64c8.832 0 16-7.168 16-16s-7.168-16-16-16z" />
<glyph unicode="&#xe939;" glyph-name="chequier" d="M752 272h-544c-8.832 0-16 7.168-16 16v256c0 8.832 7.168 16 16 16h544c8.832 0 16-7.168 16-16v-256c0-8.832-7.168-16-16-16zM224 304h512v224h-512v-224zM624 464h-160c-8.832 0-16 7.168-16 16s7.168 16 16 16h160c8.832 0 16-7.168 16-16s-7.168-16-16-16zM304 272c-8.832 0-16 7.168-16 16v256c0 8.832 7.168 16 16 16s16-7.168 16-16v-256c0-8.832-7.168-16-16-16zM816 336c-8.832 0-16 7.168-16 16v240h-528c-8.832 0-16 7.168-16 16s7.168 16 16 16h544c8.832 0 16-7.168 16-16v-256c0-8.832-7.168-16-16-16z" />
<glyph unicode="&#xe93a;" glyph-name="prelevement" d="M387.776 179.2c-4.096 0-8.192 1.568-11.328 4.672-6.24 6.24-6.24 16.384 0 22.624l153.6 153.6c6.24 6.24 16.384 6.24 22.624 0s6.24-16.384 0-22.624l-153.6-153.6c-3.104-3.136-7.2-4.672-11.296-4.672zM507.296 176h-128c-8.832 0-16 7.168-16 16v128c0 8.832 7.168 16 16 16s16-7.168 16-16v-112h112c8.832 0 16-7.168 16-16s-7.168-16-16-16zM436.864 380.768c-4.096 0-8.192 1.568-11.328 4.672l-80.16 80.16c-6.24 6.24-6.24 16.384 0 22.624l142.304 142.304-62.144 62.112c-4.576 4.576-5.952 11.456-3.456 17.44 2.496 6.016 8.32 9.92 14.784 9.92h230.4c8.832 0 16-7.168 16-16v-230.4c0-6.464-3.904-12.32-9.888-14.784-5.952-2.496-12.864-1.12-17.44 3.456l-65.472 65.504-142.304-142.304c-3.104-3.136-7.2-4.704-11.296-4.704zM379.328 476.928l57.536-57.536 142.304 142.304c3.008 3.008 7.072 4.672 11.328 4.672v0c4.256 0 8.32-1.696 11.328-4.672l49.472-49.472v175.776h-175.776l46.144-46.112c3.008-3.008 4.672-7.072 4.672-11.328s-1.696-8.32-4.672-11.328l-142.336-142.304z" />
<glyph unicode="&#xe93b;" glyph-name="download-doc" d="M672 128h-384c-8.832 0-16 7.168-16 16v512c0 8.832 7.168 16 16 16h291.2c4.896 0 9.568-2.24 12.608-6.112l92.8-118.144c2.176-2.816 3.392-6.304 3.392-9.888v-393.856c0-8.832-7.168-16-16-16zM304 160h352v372.32l-84.608 107.68h-267.392v-480zM736 224h-64c-8.832 0-16 7.168-16 16s7.168 16 16 16h48v372.224l-86.208 107.776h-233.792v-80c0-8.832-7.168-16-16-16s-16 7.168-16 16v96c0 8.832 7.168 16 16 16h257.472c4.864 0 9.472-2.208 12.512-6.016l94.528-118.144c2.24-2.848 3.488-6.368 3.488-10.016v-393.824c0-8.832-7.168-16-16-16zM470.4 347.456c-8.832 0-16 7.168-16 16v161.792c0 8.832 7.168 16 16 16s16-7.168 16-16v-161.792c0-8.832-7.136-16-16-16zM470.4 342.56c-4.256 0-8.32 1.696-11.328 4.672l-81.472 81.472c-6.24 6.24-6.24 16.384 0 22.624s16.384 6.24 22.624 0l70.144-70.144 70.112 70.144c6.24 6.24 16.384 6.24 22.624 0s6.24-16.384 0-22.624l-81.44-81.472c-2.944-2.976-7.008-4.672-11.264-4.672zM550.4 256h-160c-8.832 0-16 7.168-16 16s7.168 16 16 16h160c8.832 0 16-7.168 16-16s-7.136-16-16-16z" />
<glyph unicode="&#xe93c;" glyph-name="pie-chart" d="M512 181.984c-141.152 0-256 114.848-256 256s114.848 256 256 256 256-114.816 256-256-114.848-256-256-256zM512 661.984c-123.52 0-224-100.48-224-224s100.48-224 224-224c123.488 0 224 100.512 224 224s-100.512 224-224 224zM750.4 398.080l-240 24c-8.16 0.8-14.4 7.712-14.4 15.936v240h32v-225.504l225.6-22.56-3.2-31.872zM526.629 444.526l95.996-216.008-29.242-12.995-95.996 216.008 29.242 12.995z" />
<glyph unicode="&#xe93d;" glyph-name="heart" d="M507.712 88.864c-2.656 0-5.312 0.928-7.392 2.88l-273.504 252.032c-42.752 37.024-67.2 90.464-67.2 146.784 0 106.912 87.008 193.92 193.952 193.92 60.96 0 117.472-28.16 154.080-76.096 36.8 47.936 93.344 76.096 154.208 76.096 106.944 0 193.952-87.008 193.952-193.92 0-56-24.16-109.184-66.304-146.048-0.16-0.16-0.32-0.32-0.512-0.48l-273.888-252.288c-2.112-1.92-4.736-2.88-7.392-2.88zM353.568 662.656c-94.912 0-172.128-77.216-172.128-172.096 0-49.984 21.696-97.44 59.488-130.176l266.784-245.792 265.856 244.896c0.288 0.32 0.608 0.64 0.896 0.864 37.824 32.736 59.488 80.224 59.488 130.176 0 94.88-77.216 172.096-172.128 172.096-58.752 0-112.992-29.6-145.056-79.168-2.016-3.104-5.472-4.96-9.184-4.96v0c-3.712 0-7.168 1.888-9.152 4.992-31.84 49.6-86.016 79.168-144.864 79.168zM882.112 662.56c-3.328 0-6.624 1.536-8.768 4.448-3.552 4.832-2.528 11.68 2.304 15.264l46.336 34.208c4.832 3.584 11.68 2.528 15.264-2.304s2.56-11.68-2.272-15.264l-46.368-34.176c-1.952-1.504-4.224-2.176-6.496-2.176zM981.12 534.912c-0.576 0-1.088 0.032-1.664 0.128l-52.608 7.936c-5.952 0.896-10.048 6.464-9.152 12.416s6.464 10.080 12.448 9.152l52.576-7.936c5.984-0.896 10.048-6.464 9.152-12.416-0.8-5.408-5.472-9.28-10.752-9.28zM788.48 732.704c-0.544 0-1.088 0.032-1.664 0.128-5.952 0.896-10.016 6.464-9.12 12.416l7.936 52.608c0.896 5.952 6.432 10.016 12.448 9.152 5.952-0.896 10.016-6.464 9.12-12.416l-7.936-52.608c-0.832-5.408-5.472-9.28-10.784-9.28zM204.064 259.872c-2.4 0-4.832 0.768-6.848 2.4-33.184 26.848-60.608 57.792-81.408 92-15.84 25.952-22.88 56.48-19.872 85.984 0.608 5.984 6.112 10.272 11.968 9.728 6.016-0.608 10.368-5.984 9.76-11.968-2.56-24.8 3.424-50.496 16.768-72.416 19.52-32.064 45.28-61.12 76.544-86.336 4.672-3.808 5.408-10.688 1.6-15.328-2.176-2.688-5.344-4.064-8.512-4.064zM102.784 273.472c-2.432 0-4.832 0.8-6.848 2.4-20.672 16.672-37.76 35.968-50.752 57.344-10.144 16.672-14.688 36.256-12.736 55.2 0.64 5.984 5.888 10.272 11.968 9.728 6.016-0.64 10.368-5.984 9.728-11.968-1.472-14.208 1.984-28.96 9.632-41.568 11.712-19.264 27.136-36.64 45.856-51.712 4.672-3.776 5.408-10.656 1.632-15.328-2.144-2.688-5.28-4.096-8.48-4.096z" />
<glyph unicode="&#xe93e;" glyph-name="globe" d="M512-32c-264.672 0-480 215.328-480 479.968 0 264.704 215.328 480.032 480 480.032s480-215.328 480-480.032c0-264.64-215.328-479.968-480-479.968zM512 894.528c-246.208 0-446.56-200.32-446.56-446.56 0-246.176 200.352-446.528 446.56-446.528s446.528 200.352 446.528 446.528c0 246.24-200.32 446.56-446.528 446.56zM511.968-32c-7.584 0-14.496 5.216-16.256 12.96-2.080 8.992 3.52 17.984 12.544 20.032 137.952 31.776 241.984 223.936 241.984 446.976 0 250.080-155.008 388.832-247.36 449.312-7.712 5.056-9.92 15.424-4.832 23.168 5.056 7.712 15.392 9.888 23.2 4.832 98.016-64.16 262.496-211.456 262.496-477.28 0-238.208-115.2-444.384-267.936-479.52-1.312-0.352-2.592-0.48-3.84-0.48zM975.264 431.264h-926.56c-9.216 0-16.704 7.456-16.704 16.704s7.488 16.736 16.704 16.736h926.528c9.248 0 16.736-7.488 16.736-16.736 0.032-9.248-7.456-16.704-16.704-16.704zM882.848 676.64h-741.696c-9.248 0-16.736 7.488-16.736 16.736s7.488 16.704 16.736 16.704h741.696c9.248 0 16.704-7.488 16.704-16.736s-7.456-16.704-16.704-16.704zM882.848 185.888h-741.696c-9.248 0-16.736 7.488-16.736 16.704 0 9.248 7.488 16.736 16.736 16.736h741.696c9.248 0 16.704-7.488 16.704-16.736 0-9.216-7.456-16.704-16.704-16.704zM512-32c-9.216 0-16.704 7.456-16.704 16.704v926.56c0 9.248 7.488 16.736 16.704 16.736 9.248 0 16.704-7.488 16.704-16.736v-926.528c0-9.28-7.456-16.736-16.704-16.736zM512.032-32c-1.248 0-2.496 0.128-3.776 0.448-152.736 35.168-267.968 241.312-267.968 479.52 0 265.792 164.512 413.12 262.56 477.28 7.744 5.056 18.080 2.88 23.168-4.832 5.056-7.744 2.88-18.112-4.8-23.168-92.448-60.48-247.456-199.264-247.456-449.312 0-223.040 104.064-415.2 242.016-446.976 9.024-2.016 14.624-11.040 12.576-20.032-1.824-7.712-8.736-12.928-16.32-12.928z" />
<glyph unicode="&#xe93f;" glyph-name="Visa-network" d="M675.104 67.52h-549.344c-51.712 0-93.76 42.080-93.76 93.76v294.592c0 51.68 42.048 93.76 93.76 93.76h333.92c6.496 0 11.776-5.28 11.776-11.776s-5.28-11.776-11.776-11.776h-333.92c-38.688 0-70.176-31.488-70.176-70.176v-294.592c0-38.688 31.488-70.176 70.176-70.176h549.344c38.72 0 70.208 31.488 70.208 70.176v136.544c0 6.528 5.28 11.776 11.776 11.776s11.776-5.248 11.776-11.776v-136.544c0-51.712-42.048-93.792-93.76-93.792zM196.64 169.44h-50.944c-6.496 0-11.776 5.28-11.776 11.776s5.28 11.776 11.776 11.776h50.944c6.496 0 11.776-5.28 11.776-11.776s-5.28-11.776-11.776-11.776zM324 169.44h-50.944c-6.496 0-11.776 5.28-11.776 11.776s5.28 11.776 11.776 11.776h50.944c6.528 0 11.776-5.28 11.776-11.776s-5.248-11.776-11.776-11.776zM451.392 169.44h-50.976c-6.496 0-11.776 5.28-11.776 11.776s5.28 11.776 11.776 11.776h50.976c6.496 0 11.776-5.28 11.776-11.776s-5.248-11.776-11.776-11.776zM756.192 356.832c-130.016 0-235.776 105.792-235.776 235.808s105.792 235.808 235.776 235.808c130.016 0.032 235.808-105.76 235.808-235.776s-105.792-235.84-235.808-235.84zM756.192 804.896c-116.992 0-212.224-95.232-212.224-212.256s95.232-212.256 212.224-212.256c117.056 0 212.288 95.232 212.288 212.256s-95.232 212.256-212.288 212.256zM756.192 356.832c-5.376 0-10.208 3.68-11.456 9.152-1.44 6.336 2.496 12.672 8.832 14.080 65.088 15.008 114.176 106.368 114.176 212.576 0 119.2-73.952 185.344-118.016 214.144-5.44 3.552-6.976 10.88-3.392 16.32 3.552 5.472 10.88 6.976 16.32 3.392 48.064-31.424 128.672-103.616 128.672-233.888 0-116.864-56.928-218.112-132.448-235.488-0.896-0.192-1.792-0.288-2.688-0.288zM980.224 580.864h-448.032c-6.528 0-11.776 5.28-11.776 11.776s5.248 11.776 11.776 11.776h448.032c6.496 0 11.776-5.28 11.776-11.776s-5.28-11.776-11.776-11.776zM756.224 356.832c-6.528 0-11.776 5.28-11.776 11.776v448.064c0 6.496 5.248 11.776 11.776 11.776 6.496 0.032 11.776-5.248 11.776-11.776v-448.032c0-6.528-5.28-11.808-11.776-11.808zM756.224 356.832c-0.864 0-1.792 0.096-2.656 0.32-75.488 17.376-132.48 118.624-132.48 235.488 0 130.24 80.64 202.432 128.672 233.888 5.44 3.552 12.736 2.048 16.32-3.392 3.552-5.44 2.016-12.736-3.392-16.32-44.064-28.8-118.016-94.976-118.016-214.144 0-106.176 49.088-197.568 114.208-212.576 6.304-1.44 10.24-7.744 8.8-14.080-1.248-5.472-6.080-9.184-11.456-9.184zM268.96 290.56l21.216 124.48h33.92l-21.216-124.48zM425.952 412c-6.72 2.496-17.248 5.216-30.4 5.216-33.536 0-57.152-16.896-57.344-41.056-0.192-17.92 16.832-27.904 29.728-33.856 13.216-6.080 17.664-10.016 17.6-15.424-0.096-8.352-10.528-12.16-20.32-12.16-13.568 0-20.768 1.888-31.904 6.528l-4.416 1.984-4.736-27.872c7.904-3.456 22.592-6.464 37.792-6.624 35.68 0 58.848 16.672 59.136 42.528 0.128 14.144-8.896 24.928-28.512 33.824-11.872 5.792-19.136 9.6-19.072 15.424 0 5.184 6.144 10.72 19.424 10.72 11.104 0.16 19.136-2.24 25.408-4.768l3.040-1.44 4.576 26.976zM512.96 414.944h-26.208c-8.128 0-14.208-2.208-17.792-10.336l-50.4-114.048h35.616c0 0 5.856 15.328 7.168 18.72 3.904 0 38.528-0.064 43.456-0.064 0.992-4.384 4.128-18.656 4.128-18.656h31.488l-27.456 124.384zM471.136 334.688c2.816 7.2 13.536 34.816 13.536 34.816-0.224-0.352 2.784 7.2 4.48 11.872l2.304-10.72c0 0 6.496-29.76 7.84-35.968h-28.16zM240.512 414.976l-33.216-84.896-3.552 17.248c-6.144 19.904-25.44 41.44-46.976 52.256l30.368-108.864 35.872 0.032 53.44 124.256h-35.936zM176.448 415.040h-54.688l-0.48-2.592c42.592-10.304 70.752-35.2 82.432-65.12l-11.872 57.216c-2.048 7.872-8.032 10.208-15.392 10.496z" />
<glyph unicode="&#xe940;" glyph-name="sans-contact" d="M648.352 87.648h-526.496c-49.536 0-89.856 40.32-89.856 89.856v282.336c0 49.568 40.32 89.888 89.856 89.888h526.496c49.568 0 89.888-40.32 89.888-89.888v-282.336c-0.032-49.536-40.32-89.856-89.888-89.856zM121.856 527.136c-37.088 0-67.264-30.176-67.264-67.296v-282.336c0-37.088 30.176-67.296 67.264-67.296h526.496c37.088 0 67.296 30.176 67.296 67.296v282.336c0 37.088-30.176 67.296-67.296 67.296h-526.496zM189.792 185.28h-48.832c-6.24 0-11.296 5.056-11.296 11.328 0 6.208 5.056 11.296 11.296 11.296h48.832c6.24 0 11.296-5.056 11.296-11.296 0-6.272-5.088-11.328-11.296-11.328zM311.872 185.28h-48.832c-6.24 0-11.296 5.056-11.296 11.328 0 6.208 5.056 11.296 11.296 11.296h48.832c6.24 0 11.296-5.056 11.296-11.296 0-6.272-5.088-11.328-11.296-11.328zM433.92 185.28h-48.8c-6.24 0-11.296 5.056-11.296 11.328 0 6.208 5.056 11.296 11.296 11.296h48.8c6.24 0 11.296-5.056 11.296-11.296 0-6.272-5.056-11.328-11.296-11.328zM980.704 509.728c-6.24 0-11.328 5.056-11.328 11.296 0 146.016-118.752 264.736-264.704 264.736-6.208 0-11.296 5.056-11.296 11.296s5.056 11.328 11.296 11.328c158.432 0 287.328-128.896 287.328-287.328 0-6.272-5.056-11.328-11.296-11.328zM881.568 509.728c-6.24 0-11.296 5.056-11.296 11.296 0 91.328-74.272 165.6-165.6 165.6-6.208 0-11.296 5.056-11.296 11.296s5.056 11.328 11.296 11.328c103.744 0 188.16-84.448 188.16-188.192 0-6.272-5.056-11.328-11.264-11.328zM795.584 509.728c-6.24 0-11.328 5.056-11.328 11.296 0 43.904-35.712 79.584-79.584 79.584-6.208 0-11.296 5.056-11.296 11.328 0 6.208 5.056 11.296 11.296 11.296 56.352 0 102.176-45.856 102.176-102.176 0.032-6.272-5.024-11.328-11.264-11.328zM594.816 315.040h-50.752c-22.592 0-40.992 18.368-40.992 40.96v50.752c0 22.592 18.4 40.96 40.992 40.96h50.752c22.592 0 40.96-18.368 40.96-40.96v-50.752c0-22.592-18.368-40.96-40.96-40.96zM544.064 425.12c-10.144 0-18.4-8.256-18.4-18.368v-50.752c0-10.144 8.256-18.4 18.4-18.4h50.752c10.112 0 18.4 8.256 18.4 18.4v50.752c0 10.112-8.288 18.368-18.4 18.368h-50.752z" />
<glyph unicode="&#xe941;" glyph-name="zero-alt" d="M406.368 95.104c-163.008 0-256.48 105.824-256.48 290.272 0 185.504 94.336 291.872 258.816 291.872 164.864 0 255.648-103.36 255.648-291.104 0.032-184.96-94.016-291.040-257.984-291.040zM408.704 657.056c-153.888 0-238.592-96.512-238.592-271.68 0-174.144 83.904-270.080 236.256-270.080 153.344 0 237.824 96.224 237.824 270.88s-83.616 270.88-235.488 270.88zM407.136 206.048c-84.672 0-125.792 58.912-125.792 180.096 0 119.52 42.304 180.128 125.792 180.128 84.672 0 125.824-58.912 125.824-180.128-0.032-121.184-41.184-180.096-125.824-180.096zM407.136 546.080c-45.312 0-105.6-16.608-105.6-159.936s60.288-159.872 105.6-159.872c73.056 0 105.632 49.312 105.632 159.872-0.032 110.592-32.576 159.936-105.632 159.936zM880.48 100.64c-80.064 0-129.632 34.592-143.872 100.192h-18.592c-10.016 0-18.464 2.784-24.384 8-5.888 4.672-9.312 11.648-9.312 19.328 0 12.608 9.76 25.312 28.448 27.456-20.48 1.376-29.696 14.56-29.696 27.68 0 12.416 8.672 26.944 33.248 26.944h17.888c9.472 70.944 57.792 109.856 137.024 109.856 59.68 0 99.168-19.808 117.312-58.912 2.24-4.512 3.456-9.408 3.456-14.336 0-17.76-18.72-42.496-49.248-42.496-18.336 0-25.28 10.176-30.848 18.336-6.24 9.184-12.16 17.888-39.84 17.888-32.224 0-43.936-10.976-48.896-30.304h71.616c22.368 0 32.416-13.76 32.416-27.36 0-13.216-8.544-27.36-32.416-27.36h-7.008c17.792-2.464 25.952-15.104 25.952-26.944 0-13.824-10.016-27.744-32.416-27.744h-48.992c6.688-10.784 21.536-20.64 56.992-20.64 16.736 0 31.904 1.792 47.68 5.6 4.928 1.088 8.736 1.984 13.344 1.984 6.528 0 13.568-1.632 19.232-4.416 12.544-5.984 19.488-18.016 19.488-33.92 0-31.040-39.552-48.832-108.576-48.832zM718.4 235.744c-9.12 0-13.888-3.808-13.888-7.584 0-1.088 0.256-2.4 2.080-3.904 2.496-2.176 6.4-3.264 11.36-3.264h35.488l1.408-8.448c10.048-60.864 52.32-91.712 125.568-91.712 52.064 0 88.416 11.744 88.416 28.608 0 11.84-6.144 14.784-8.16 15.712-3.040 1.504-6.944 2.4-10.368 2.4-2.336 0-4.704-0.576-7.712-1.216-18.24-4.416-34.912-6.368-53.312-6.368-47.072 0-74.464 16.448-81.44 48.8l-2.656 12.224h76.096c12.192 0 12.192 5.696 12.192 7.552 0 6.464-8.544 7.2-12.192 7.2h-79.616l-1.12 8.832c-0.48 3.808-0.512 6.656-0.512 10.944v20.192h94.72c12.192 0 12.192 4.832 12.192 7.168 0 5.952-6.624 7.168-12.192 7.168h-95.328l1.536 11.424c5.408 40.992 27.328 59.296 71.072 59.296 38.336 0 48.864-15.392 56.544-26.688 4.736-6.944 6.496-9.536 14.144-9.536 18.816 0 29.024 14.752 29.024 22.304 0 1.792-0.48 3.616-1.44 5.6-14.88 32.032-47.296 47.456-99.136 47.456-72.672 0-112.352-33.856-117.92-100.608l-0.736-9.28h-36.256c-4.864 0-13.056-0.864-13.056-6.72 0-6.272 7.104-7.584 13.056-7.584h34.944v-20.64c0-2.528-0.032-5.088 0.352-8l1.408-11.328h-34.56zM139.808 660.576c-2.816 0-5.696 0.896-8.096 2.72l-48.96 36.864c-5.952 4.48-7.136 12.928-2.656 18.88s12.928 7.136 18.88 2.656l48.96-36.896c5.952-4.48 7.136-12.928 2.656-18.88-2.656-3.488-6.688-5.344-10.784-5.344zM45.472 542.144c-6.624 0-12.384 4.864-13.344 11.584-1.024 7.36 4.096 14.176 11.456 15.232l56.032 7.904c7.456 1.056 14.176-4.128 15.232-11.456 1.024-7.36-4.096-14.176-11.456-15.232l-56.032-7.904c-0.64-0.064-1.312-0.128-1.888-0.128zM227.936 717.92c-6.624 0-12.416 4.832-13.344 11.584l-7.904 56.032c-1.024 7.36 4.096 14.176 11.456 15.232 7.36 1.088 14.144-4.064 15.232-11.424l7.904-56.096c1.024-7.328-4.096-14.144-11.456-15.232-0.64-0.064-1.28-0.096-1.888-0.096z" />
<glyph unicode="&#xe942;" glyph-name="group" d="M513.92 486.688c-90.72 0-164.544 73.824-164.544 164.576s73.824 164.512 164.544 164.512 164.544-73.76 164.544-164.512-73.792-164.576-164.544-164.576zM513.92 791.488c-77.344 0-140.256-62.944-140.256-140.256 0-77.376 62.912-140.256 140.256-140.256s140.256 62.88 140.256 140.256c0 77.344-62.912 140.256-140.256 140.256zM700.192 80.256h-372.544c-6.688 0-12.128 5.504-12.128 12.192v152.352c0 109.44 88.992 198.432 198.432 198.432 109.376 0 198.432-88.992 198.432-198.432v-152.384c-0.032-6.656-5.472-12.16-12.192-12.16zM339.808 104.576h348.256v140.224c0 96-78.112 174.112-174.144 174.112s-174.112-78.112-174.112-174.112v-140.224zM825.408 417.248c-76.384 0-138.528 62.176-138.528 138.56s62.144 138.496 138.528 138.496 138.528-62.112 138.528-138.496-62.144-138.56-138.528-138.56zM825.408 669.984c-62.976 0-114.208-51.264-114.208-114.176 0-63.008 51.264-114.24 114.208-114.24s114.208 51.264 114.208 114.24c0 62.944-51.232 114.176-114.208 114.176zM979.872 80.256h-308.928c-6.688 0-12.128 5.504-12.128 12.192s5.44 12.128 12.128 12.128h296.768v114.24c0 78.432-63.84 142.304-142.304 142.304-45.408 0-87.008-20.928-114.144-57.376l-7.808-13.504c-3.424-5.824-10.88-7.68-16.64-4.384-5.824 3.424-7.744 10.88-4.384 16.64l8.576 14.688c32.064 43.136 82.048 68.192 134.4 68.192 91.872 0 166.592-74.688 166.592-166.56v-126.368c0-6.688-5.44-12.192-12.128-12.192zM198.624 417.248c-76.384 0-138.528 62.176-138.528 138.56s62.144 138.496 138.528 138.496c76.384 0 138.528-62.112 138.528-138.496s-62.144-138.56-138.528-138.56zM198.624 669.984c-62.976 0-114.208-51.264-114.208-114.176 0-63.008 51.264-114.24 114.208-114.24 62.976 0 114.24 51.264 114.24 114.24-0.032 62.944-51.264 114.176-114.24 114.176zM353.056 80.256h-308.896c-6.72 0-12.16 5.504-12.16 12.192v126.368c0 91.872 74.72 166.56 166.624 166.56 52.384 0 102.336-25.056 133.664-67.072l11.936-18.944c3.584-5.632 1.888-13.184-3.808-16.736s-13.184-1.888-16.736 3.808l-11.392 18.112c-26.624 35.616-68.224 56.576-113.632 56.576-78.464 0-142.304-63.872-142.304-142.304v-114.24h296.736c6.72 0 12.16-5.44 12.16-12.128s-5.472-12.192-12.192-12.192z" />
</font>
</defs>
</svg>
